[TR24][SM][OF] The Romantic Piano Concerto ~ 64 : Henrique Oswald & Alfredo Napoleao - Concertos in G minor Op 10 & E flat minor Op 31 / Artur Pizarro, Martyn Brabbins & BBC National Orchestra of Wales - 2014 (Classical)


Статистика раздачи [Обновить пиров]
Размер:  1.13 GB   |    Зарегистрирован:  8 месяцев 20 дней   |    Скачан:  0 раз

Полного источника не было: Никогда

 
   
 
 
 

[Цитировать]

·
·
The Romantic Piano Concerto ~ 64Жанр: Concerto
Носитель: Official Digital Download
Год издания диска: 2014
Издатель(лейбл): © Hyperion Records
Номер по каталогу: CDA67984
Продолжительность: 01:07:09
Наличие сканов в содержимом раздачи: cover & booklet
Контейнер: FLAC (*.flac)
Разрядность: 24/96
Количество каналов: 2.0
Формат: tracks
Источник: hyperion-records.co.uk
Pелизер: WEB (thanks to the original customer)
Artur Pizarro piano
BBC National Orchestra of Wales
Martyn Brabbins conductor

Треклист

Henrique Oswald (1852-1931)Piano Concerto in G minor Op 10
01 Allegro (un poco agitato) [14'21]
02 Adagio – [9'22]
03 Allegro [6'27]
Alfredo Napoleão dos Santos (1852-1917)
Piano Concerto No 2 in E flat minor Op 31
04 Andantino maestoso [19'53]
05 Scherzo: Allegro vivace – Più lento – Tempo I [4'11]
06 Allegro – Più vivo [12'55]

Dynamic Range Meter

foobar2000 1.2.6 / Dynamic Range Meter 1.1.1
log date: 2015-04-26 22:50:54
--------------------------------------------------------------------------------
Analyzed: Artur Pizarro, BBC National Orchestra of Wales, Martyn Brabbins / Romantic Piano Concerto 64 - Oswald & Napoleão dos Santos: Piano Concertos
--------------------------------------------------------------------------------
DR Peak RMS Duration Track
--------------------------------------------------------------------------------
DR14 -0.07 dB -19.23 dB 14:21 01-Piano Concerto in G minor, Op 10 - 1: Allegro (un poco agitato)
DR15 -0.84 dB -22.70 dB 9:22 02-Piano Concerto in G minor, Op 10 - 2: Adagio –
DR15 -0.88 dB -20.69 dB 6:27 03-Piano Concerto in G minor, Op 10 - 3: Allegro
DR16 -0.45 dB -21.64 dB 19:53 04-Piano Concerto No 2 in E flat minor, Op 31 - 1: Andantino maestoso
DR14 -3.75 dB -22.76 dB 4:12 05-Piano Concerto No 2 in E flat minor, Op 31 - 2: Scherzo: Allegro vivace – Più lento – Tempo I
DR14 -0.31 dB -20.07 dB 12:53 06-Piano Concerto No 2 in E flat minor, Op 31 - 3: Allegro – Più vivo
--------------------------------------------------------------------------------
Number of tracks: 6
Official DR value: DR15
Samplerate: 96000 Hz
Channels: 2
Bits per sample: 24
Bitrate: 2428 kbps
Codec: FLAC
================================================================================
[teatrix.ru].t21026.torrent 
Торрент: Зарегистрирован [ 2016-03-20 00:55 ] · FB8A551BAC45C86850F73F9B3CC6940334054DEB

Скачать .torrent

Скачать

13 KB

Статус: проверено
Скачан: 0 раз
Размер: 1.13 GB
terms.php



Быстрый ответ

Имя:

      
Для отправки сообщений необходимо включить JavaScript
Показать сообщения:    

Текущее время: 09-Дек 22:19

Часовой пояс: UTC + 3


Вы можете начинать темы
Вы можете отвечать на сообщения
Вы не можете редактировать свои сообщения
Вы не можете удалять свои сообщения
Вы не можете голосовать в опросах
Вы не можете прикреплять файлы к сообщениям
Вы можете скачивать файлы