(Classical) [LP] [24/48] (Classical) [LP] [24/48] Glenn Gould (Piano)/Глен Гулд - Из Сокровищницы Мирового Исполнительского Искусства (J.S.Bach, L. Beethoven) - 1980, FLAC (tracks+.cue)


Статистика раздачи [Обновить пиров]
Размер:  274 MB   |    Зарегистрирован:  8 месяцев 22 дня   |    Скачан:  1 раз

Полного источника не было: 21 день

 
   
 
 
 

[Цитировать]

(Classical) [LP] [24/48] Glenn Gould(Piano)/Глен Гулд - Из Сокровищницы Мирового Исполнительского Искусства
Жанр: Classical
Носитель: LP
Год выпуска: 1980
Лейбл: Melodya (LSG)
Страна-производитель: USSR
Аудио кодек: FLAC
Тип рипа: tracks+.cue
Формат записи: 32/192
Формат раздачи: 24/48
Продолжительность: 52.41 min
Треклист:
J.S.Bach - Piano Concerto №1
01. Allegro
02. Adagio
03. Allegro
L. Beethoven - Piano Concerto №2
04. Allegro
05. Adagio
06. Rondo. Molto allegro
Leningrad Philarmonic SYMPHONY ORCHESTRA
Conductor Ladislav Slovak
Источник оцифровки: автором раздачи
Код класса состояния винила: Ex
Устройство воспроизведения: Электроника ЭП 017С
Головка звукоснимателя: Audio-Technica AT95
Предварительный усилитель: Бриг-001
АЦП: VIA HD audio device
Программа-оцифровщик: Izotope RX 4 Advanced
Обработка: Izotope RX 4 Advanced

Спектр+АЧХ+Уровень записи

DR=12

foobar2000 1.1.10 / Dynamic Range Meter 1.1.1
log date: 2015-04-27 16:12:05
--------------------------------------------------------------------------------
Analyzed: Glenn Gould / The World's Leading Interpreters Of Music
--------------------------------------------------------------------------------
DR Peak RMS Duration Track
--------------------------------------------------------------------------------
DR13 -3.06 dB -19.73 dB 8:32 ?-Allegro
DR14 -2.22 dB -22.12 dB 7:23 ?-Adagio
DR12 -3.12 dB -18.40 dB 8:36 ?-Allegro
DR12 -2.35 dB -18.23 dB 13:36 ?-Allegro
DR13 -3.54 dB -21.22 dB 8:25 ?-Adagio
DR11 -3.50 dB -17.41 dB 6:08 ?-Rondo. Molto allegro
--------------------------------------------------------------------------------
Number of tracks: 6
Official DR value: DR12
Samplerate: 48000 Hz
Channels: 1
Bits per sample: 24
Bitrate: 708 kbps
Codec: FLAC
================================================================================

Back, Inner & Disc

[teatrix.ru].t21028.torrent 
Торрент: Зарегистрирован [ 2016-03-20 00:55 ] · 4E940E9C37809FAF1BA06FCBC8BFB12617AFE508

Скачать .torrent

Скачать

12 KB

Статус: проверено
Скачан: 1 раз
Размер: 274 MB
terms.php



Быстрый ответ

Имя:

      
Для отправки сообщений необходимо включить JavaScript
Показать сообщения:    

Текущее время: 11-Дек 16:48

Часовой пояс: UTC + 3


Вы можете начинать темы
Вы можете отвечать на сообщения
Вы не можете редактировать свои сообщения
Вы не можете удалять свои сообщения
Вы не можете голосовать в опросах
Вы не можете прикреплять файлы к сообщениям
Вы можете скачивать файлы