(Classical, Orchestral) Bruckner - Symphonies Nos. 4-9 (Wiener Philharmoniker, Berliner Philharmoniker, Orquestra Sinfonica Venezuela, Teatro Colon Orchestra, Wilhelm Furtwangler) - 2006, FLAC (image+.cue), lossless


 

[Цитировать]

Bruckner - Symphonies Nos. 4-9 - Furtwängler
Жанр: Classical, Orchestral
Страна-производитель диска: EU
Год издания диска: 2006
Издатель (лейбл): Andromeda
Номер по каталогу: ANDRCD 9008
Дата записи: 1942-1954
Аудиокодек: FLAC
Тип рипа: image+.cue
Битрейт аудио: lossless
Продолжительность: g
Источник: собственный рип
Наличие сканов в содержимом раздачи: да
Исполнители:
Wiener Philharmoniker (Symphonies Nos. 4, 8)
Berliner Philharmoniker (Symphonies Nos. 5, 6, 7, 9 & Nocturnes)
Orquestra Sinfonica Venezuela (Tannhauser)
Teatro Colon Orchestra (Rosamunde)
Wilhelm Furtwangler

CD1:Треклист:

Symphony No. 4 in E flat major "Romantic"
01. I. Bewegt, nicht zu schnell
02. II. Andante quasi Allegretto
03. III. Scherzo. Bewegt - Trio. Nicht zu schnell. Keinesfalls schleppend
04. IV. Finale. Bewegt, doch nicht zu schnell
Total 63.59

Лог создания рипа:

Exact Audio Copy V1.0 beta 3 from 29. August 2011
Отчёт EAC об извлечении, выполненном 4. мая 2015, 15:23
Anton Bruckner / Symphony No.4 in E flat major "Romantic", WAB 104
Дисковод: Optiarc DVD RW AD-7260S Adapter: 0 ID: 1
Режим чтения : Достоверность
Использование точного потока : Да
Отключение кэша аудио : Да
Использование указателей C2 : Нет
Коррекция смещения при чтении : 48
Способность читать области Lead-in и Lead-out : Нет
Заполнение пропущенных сэмплов тишиной : Да
Удаление блоков с тишиной в начале и конце : Нет
При вычислениях CRC использовались нулевые сэмплы : Да
Интерфейс : Встроенный Win32-интерфейс для Win NT/2000
Выходной формат : Пользовательский кодировщик
Выбранный битрейт : 896 kBit/s
Качество : Высокий
Добавление ID3-тега : Нет
Утилита сжатия : C:\Program Files\FLAC Frontend\tools\flac.exe
Дополнительные параметры : -V -8 -T "Date=%year%" -T "Genre=%genre%" %source%
TOC извлечённого CD
Трек | Старт | Длительность | Начальный сектор | Конечный сектор
---------------------------------------------------------------------
1 | 0:00.00 | 17:14.44 | 0 | 77593
2 | 17:14.44 | 17:34.44 | 77594 | 156687
3 | 34:49.13 | 9:58.50 | 156688 | 201587
4 | 44:47.63 | 19:12.10 | 201588 | 287997
Характеристики диапазона извлечения и сообщения об ошибках
Выбранный диапазон
Имя файла D:\EAC\Мои раздачи\Bruckner - Symphonies Nos. 4-9 - Furtwangler\CD1\Anton Bruckner - Symphony No.4 in E flat major ''Romantic'', WAB 104.wav
Пиковый уровень 100.0 %
Скорость извлечения 4.2 X
Качество диапазона 100.0 %
CRC теста 287769EC
CRC копии 287769EC
Копирование... OK
Ошибок не произошло
AccurateRip: сводка
Трек 1 : извлечено точно (доверие 1) [9E30FF4D] (AR v2)
Трек 2 : извлечено точно (доверие 1) [BAACE941] (AR v2)
Трек 3 : извлечено точно (доверие 1) [D082DC06] (AR v2)
Трек 4 : извлечено точно (доверие 1) [8FC719B6] (AR v2)
Все треки извлечены точно
Конец отчёта
==== Контрольная сумма отчёта F8611EE262DDE2ABF39DF473A11F2AFA8040841AF0BBFB6BD443D989046C7205 ====

CD2:Треклист:

Symphony No. 5 in B flat major
01. I. Introduction. Adagio - Allegro
02. II. Adagio. Sehr langsam
03. III. Scherzo. Molto vivace (schnell) - Trio
04. IV. Finale. Adagio - Allegro moderato
Total 68.34

Лог создания рипа:

Exact Audio Copy V1.0 beta 3 from 29. August 2011
Отчёт EAC об извлечении, выполненном 5. мая 2015, 13:07
Anton Bruckner / Symphony No. 5 in B flat major
Дисковод: Optiarc DVD RW AD-7260S Adapter: 0 ID: 1
Режим чтения : Достоверность
Использование точного потока : Да
Отключение кэша аудио : Да
Использование указателей C2 : Нет
Коррекция смещения при чтении : 48
Способность читать области Lead-in и Lead-out : Нет
Заполнение пропущенных сэмплов тишиной : Да
Удаление блоков с тишиной в начале и конце : Нет
При вычислениях CRC использовались нулевые сэмплы : Да
Интерфейс : Встроенный Win32-интерфейс для Win NT/2000
Выходной формат : Пользовательский кодировщик
Выбранный битрейт : 896 kBit/s
Качество : Высокий
Добавление ID3-тега : Нет
Утилита сжатия : C:\Program Files\FLAC Frontend\tools\flac.exe
Дополнительные параметры : -V -8 -T "Date=%year%" -T "Genre=%genre%" %source%
TOC извлечённого CD
Трек | Старт | Длительность | Начальный сектор | Конечный сектор
---------------------------------------------------------------------
1 | 0:00.00 | 19:07.53 | 0 | 86077
2 | 19:07.53 | 15:29.17 | 86078 | 155769
3 | 34:36.70 | 11:59.59 | 155770 | 209753
4 | 46:36.54 | 21:57.52 | 209754 | 308580
Характеристики диапазона извлечения и сообщения об ошибках
Выбранный диапазон
Имя файла D:\EAC\Мои раздачи\Bruckner - Symphonies Nos. 4-9 - Furtwangler\CD2\Anton Bruckner - Symphony No. 5 in B flat major.wav
Пиковый уровень 91.0 %
Скорость извлечения 4.3 X
Качество диапазона 100.0 %
CRC теста 05F6A2EF
CRC копии 05F6A2EF
Копирование... OK
Ошибок не произошло
AccurateRip: сводка
Трек 1 точность не определена (достоверность 2) [3F1C115A], AccurateRip вернул [39119B15] (AR v2)
Трек 2 точность не определена (достоверность 2) [6C5ABAC4], AccurateRip вернул [494AD981] (AR v2)
Трек 3 точность не определена (достоверность 2) [BDCD98AF], AccurateRip вернул [0CFDCC5C] (AR v2)
Трек 4 точность не определена (достоверность 2) [CB54B8C7], AccurateRip вернул [FBAC43DD] (AR v2)
Ни один трек не прошёл проверки на точность
В вашей базе может быть иной вариант штамповки диска
Конец отчёта
==== Контрольная сумма отчёта 97299DD8D12E35392768DB48F484B6E760C53E964EC13F8E148B8DF2B83FEAA3 ====

CD3:Треклист:

Symphony No. 6 in A major (movements II-IV)
01. II. Adagio. Sehr feierlich
02. III. Scherzo. Nicht schnell - Trio. Langsam
03. IV. Finale. Bewegt, doch nicht zu schnell
Claude Debussy - Nocturnes:
04. Nuages
05. Fetes
Richard Wagner - Tannhauser
06. Overture
Franz Schubert - Rosamunde
07. Ballet Music No.2
08. Entr'acte No.3
Total 76.49

Лог создания рипа:

Exact Audio Copy V1.0 beta 3 from 29. August 2011
Отчёт EAC об извлечении, выполненном 5. мая 2015, 13:47
Anton Bruckner / Symphony No. 6 in A major (II-IV)
Дисковод: Optiarc DVD RW AD-7260S Adapter: 0 ID: 1
Режим чтения : Достоверность
Использование точного потока : Да
Отключение кэша аудио : Да
Использование указателей C2 : Нет
Коррекция смещения при чтении : 48
Способность читать области Lead-in и Lead-out : Нет
Заполнение пропущенных сэмплов тишиной : Да
Удаление блоков с тишиной в начале и конце : Нет
При вычислениях CRC использовались нулевые сэмплы : Да
Интерфейс : Встроенный Win32-интерфейс для Win NT/2000
Выходной формат : Пользовательский кодировщик
Выбранный битрейт : 896 kBit/s
Качество : Высокий
Добавление ID3-тега : Нет
Утилита сжатия : C:\Program Files\FLAC Frontend\tools\flac.exe
Дополнительные параметры : -V -8 -T "Date=%year%" -T "Genre=%genre%" %source%
TOC извлечённого CD
Трек | Старт | Длительность | Начальный сектор | Конечный сектор
---------------------------------------------------------------------
1 | 0:00.00 | 16:14.45 | 0 | 73094
2 | 16:14.45 | 7:36.08 | 73095 | 107302
3 | 23:50.53 | 12:21.51 | 107303 | 162928
4 | 36:12.29 | 7:30.62 | 162929 | 196740
5 | 43:43.16 | 7:01.33 | 196741 | 228348
6 | 50:44.49 | 13:34.41 | 228349 | 289439
7 | 64:19.15 | 5:43.56 | 289440 | 315220
8 | 70:02.71 | 6:46.16 | 315221 | 345686
Характеристики диапазона извлечения и сообщения об ошибках
Выбранный диапазон
Имя файла D:\EAC\Мои раздачи\Bruckner - Symphonies Nos. 4-9 - Furtwangler\CD3\Anton Bruckner - Symphony No. 6 in A major (II-IV).wav
Пиковый уровень 100.0 %
Скорость извлечения 4.5 X
Качество диапазона 99.9 %
CRC теста DC3DF1AD
CRC копии DC3DF1AD
Копирование... OK
Ошибок не произошло
AccurateRip: сводка
Трек 1 : извлечено точно (доверие 1) [E44B840E] (AR v2)
Трек 2 : извлечено точно (доверие 1) [88479560] (AR v2)
Трек 3 : извлечено точно (доверие 1) [2BB0E586] (AR v2)
Трек 4 : извлечено точно (доверие 1) [B13BD8EC] (AR v2)
Трек 5 : извлечено точно (доверие 1) [6C430CDB] (AR v2)
Трек 6 : извлечено точно (доверие 1) [5544B11F] (AR v2)
Трек 7 : извлечено точно (доверие 1) [36770B13] (AR v2)
Трек 8 : извлечено точно (доверие 1) [1D5CC007] (AR v2)
Все треки извлечены точно
Конец отчёта
==== Контрольная сумма отчёта 1D87026A6B5C9268FBB9B38086C5ECA3D547C6DEF4DA854B0FDDCFFF2C1DE809 ====

CD4:Треклист:

Symphony No. 7 in E major
01. I. Allegro moderato
02. II. Adagio. Sehr feierlich und sehr langsam
03. III. Scherzo. Sehr schell - Trio
04. IV. Finale. Bewegt, doch nicht schnell
Total 63.52

Лог создания рипа:

Exact Audio Copy V1.0 beta 3 from 29. August 2011
Отчёт EAC об извлечении, выполненном 5. мая 2015, 16:29
Anton Bruckner / Symphony No. 7 in E major
Дисковод: Optiarc DVD RW AD-7260S Adapter: 0 ID: 1
Режим чтения : Достоверность
Использование точного потока : Да
Отключение кэша аудио : Да
Использование указателей C2 : Нет
Коррекция смещения при чтении : 48
Способность читать области Lead-in и Lead-out : Нет
Заполнение пропущенных сэмплов тишиной : Да
Удаление блоков с тишиной в начале и конце : Нет
При вычислениях CRC использовались нулевые сэмплы : Да
Интерфейс : Встроенный Win32-интерфейс для Win NT/2000
Выходной формат : Пользовательский кодировщик
Выбранный битрейт : 896 kBit/s
Качество : Высокий
Добавление ID3-тега : Нет
Утилита сжатия : C:\Program Files\FLAC Frontend\tools\flac.exe
Дополнительные параметры : -V -8 -T "Date=%year%" -T "Genre=%genre%" %source%
TOC извлечённого CD
Трек | Старт | Длительность | Начальный сектор | Конечный сектор
---------------------------------------------------------------------
1 | 0:00.32 | 20:06.63 | 32 | 90544
2 | 20:07.20 | 21:43.25 | 90545 | 188294
3 | 41:50.45 | 9:47.37 | 188295 | 232356
4 | 51:38.07 | 12:15.13 | 232357 | 287494
Характеристики диапазона извлечения и сообщения об ошибках
Выбранный диапазон
Имя файла D:\EAC\Мои раздачи\Bruckner - Symphonies Nos. 4-9 - Furtwangler\CD4\Anton Bruckner - Symphony No. 7 in E major.wav
Пиковый уровень 96.6 %
Скорость извлечения 3.6 X
Качество диапазона 99.9 %
CRC теста A5BD6F7B
CRC копии A5BD6F7B
Копирование... OK
Ошибок не произошло
AccurateRip: сводка
Трек 1 точность не определена (достоверность 2) [88BF9925], AccurateRip вернул [6DF91075] (AR v2)
Трек 2 точность не определена (достоверность 3) [A01DE30F], AccurateRip вернул [28B4EC87] (AR v2)
Трек 3 : извлечено точно (доверие 2) [AB1649B3] (AR v2)
Трек 4 : извлечено точно (доверие 3) [BADB785A] (AR v2)
2 трек(и) скопированы точно
2 трек(и) не удалось проверить на точность
Некоторые треки не прошли проверку на точность
Конец отчёта
==== Контрольная сумма отчёта A3D88773D131E7608191467414C7F9B92C5FD708C494B1286411D3E74CCFE152 ====

CD5:Треклист:

Symphony No. 8 in C minor
01. I. Allegro moderato
02. II. Scherzo. Allegro moderato - Trio. Langsam
03. III. Adagio. Feierlich langsam; doch nicht schleppend
04. IV. Finale. Feierlich, nicht schnell
Total 77.08

Лог создания рипа:

Exact Audio Copy V1.0 beta 3 from 29. August 2011
Отчёт EAC об извлечении, выполненном 5. мая 2015, 17:09
Anton Bruckner / Symphony No. 8 in B flat major
Дисковод: Optiarc DVD RW AD-7260S Adapter: 0 ID: 1
Режим чтения : Достоверность
Использование точного потока : Да
Отключение кэша аудио : Да
Использование указателей C2 : Нет
Коррекция смещения при чтении : 48
Способность читать области Lead-in и Lead-out : Нет
Заполнение пропущенных сэмплов тишиной : Да
Удаление блоков с тишиной в начале и конце : Нет
При вычислениях CRC использовались нулевые сэмплы : Да
Интерфейс : Встроенный Win32-интерфейс для Win NT/2000
Выходной формат : Пользовательский кодировщик
Выбранный битрейт : 896 kBit/s
Качество : Высокий
Добавление ID3-тега : Нет
Утилита сжатия : C:\Program Files\FLAC Frontend\tools\flac.exe
Дополнительные параметры : -V -8 -T "Date=%year%" -T "Genre=%genre%" %source%
TOC извлечённого CD
Трек | Старт | Длительность | Начальный сектор | Конечный сектор
---------------------------------------------------------------------
1 | 0:00.00 | 15:17.18 | 0 | 68792
2 | 15:17.18 | 14:14.59 | 68793 | 132901
3 | 29:32.02 | 25:13.73 | 132902 | 246449
4 | 54:46.00 | 22:22.64 | 246450 | 347163
Характеристики диапазона извлечения и сообщения об ошибках
Выбранный диапазон
Имя файла D:\EAC\Мои раздачи\Bruckner - Symphonies Nos. 4-9 - Furtwangler\CD5\Anton Bruckner - Symphony No. 8 in B flat major.wav
Пиковый уровень 100.0 %
Скорость извлечения 4.6 X
Качество диапазона 100.0 %
CRC теста 91F68AE5
CRC копии 91F68AE5
Копирование... OK
Ошибок не произошло
AccurateRip: сводка
Трек 1 : извлечено точно (доверие 1) [4E89659C] (AR v2)
Трек 2 : извлечено точно (доверие 1) [35E7ABF4] (AR v2)
Трек 3 : извлечено точно (доверие 1) [2F2A7019] (AR v2)
Трек 4 : извлечено точно (доверие 1) [D1DEA038] (AR v2)
Все треки извлечены точно
Конец отчёта
==== Контрольная сумма отчёта 6F378C568B7B990E0E64AD73C0DE3FBBDE01651721142B9C9740E9D2B9A06D83 ====

CD6:Треклист:

Symphony No. 9 in D minor
01. I. Feierlich, misterioso
02. II. Scherzo. Bewegt, lebhaft - Trio. Schnell
03. III. Adagio. Langsam, feierlich
Total 59.00

Лог создания рипа:

Exact Audio Copy V1.0 beta 3 from 29. August 2011
Отчёт EAC об извлечении, выполненном 5. мая 2015, 17:57
Anton Bruckner / Symphony No. 9 in D minor
Дисковод: Optiarc DVD RW AD-7260S Adapter: 0 ID: 1
Режим чтения : Достоверность
Использование точного потока : Да
Отключение кэша аудио : Да
Использование указателей C2 : Нет
Коррекция смещения при чтении : 48
Способность читать области Lead-in и Lead-out : Нет
Заполнение пропущенных сэмплов тишиной : Да
Удаление блоков с тишиной в начале и конце : Нет
При вычислениях CRC использовались нулевые сэмплы : Да
Интерфейс : Встроенный Win32-интерфейс для Win NT/2000
Выходной формат : Пользовательский кодировщик
Выбранный битрейт : 896 kBit/s
Качество : Высокий
Добавление ID3-тега : Нет
Утилита сжатия : C:\Program Files\FLAC Frontend\tools\flac.exe
Дополнительные параметры : -V -8 -T "Date=%year%" -T "Genre=%genre%" %source%
TOC извлечённого CD
Трек | Старт | Длительность | Начальный сектор | Конечный сектор
---------------------------------------------------------------------
1 | 0:00.00 | 23:44.31 | 0 | 106830
2 | 23:44.31 | 9:37.21 | 106831 | 150126
3 | 33:21.52 | 25:39.16 | 150127 | 265567
Характеристики диапазона извлечения и сообщения об ошибках
Выбранный диапазон
Имя файла D:\EAC\Мои раздачи\Bruckner - Symphonies Nos. 4-9 - Furtwangler\CD6\Anton Bruckner - Symphony No. 9 in D minor.wav
Пиковый уровень 99.9 %
Скорость извлечения 4.0 X
Качество диапазона 100.0 %
CRC теста B6F69FF9
CRC копии B6F69FF9
Копирование... OK
Ошибок не произошло
AccurateRip: сводка
Трек 1 : извлечено точно (доверие 1) [38A871C0] (AR v2)
Трек 2 : извлечено точно (доверие 1) [A9F873C6] (AR v2)
Трек 3 : извлечено точно (доверие 1) [1CA87C6E] (AR v2)
Все треки извлечены точно
Конец отчёта
==== Контрольная сумма отчёта 10D91E70490E76EB589496B478EAE9A63D225801ED41C1A2E006D1F4B3C1FE82 ====



Показать сообщения:    

Текущее время: 09-Дек 20:29

Часовой пояс: UTC + 3


Вы не можете начинать темы
Вы не можете отвечать на сообщения
Вы не можете редактировать свои сообщения
Вы не можете удалять свои сообщения
Вы не можете голосовать в опросах
Вы не можете прикреплять файлы к сообщениям
Вы не можете скачивать файлы