[TR24][SM][OF] The Romantic Violin Concerto ~ 18 : Joseph Jongen & Sylvio Lazzari - Philippe Graffin, Martyn Brabbins & Royal Flemish Philharmonic - 2015 (Classical)


Статистика раздачи [Обновить пиров]
Размер:  1.13 GB   |    Зарегистрирован:  8 месяцев 18 дней   |    Скачан:  0 раз

Полного источника не было: Никогда

 
   
 
 
 

[Цитировать]

·
·
The Romantic Violin Concerto ~ 18Жанр: Concerto
Носитель: Official Digital Download
Год издания диска: 2015
Издатель(лейбл): © Hyperion Records
Номер по каталогу: CDA68005
Продолжительность: 01:05:45
Наличие сканов в содержимом раздачи: cover & booklet
Контейнер: FLAC (*.flac)
Разрядность: 24/96
Количество каналов: 2.0
Формат: tracks
Источник: hyperion-records.co.uk
Pелизер: WEB (thanks to the original customer)
Philippe Graffin violin
Royal Flemish Philharmonic
Martyn Brabbins conductor

Треклист

Joseph Jongen (1873-1953)
01 Fantasia in E major Op 12 (1898) [6'18]
Sylvio Lazzari (1857-1944)
02 Rapsodie in E minor (1922) [16'52]
Joseph Jongen (1873-1953)
03 Adagio symphonique in B major Op 20 (1901) [11'53]
Violin Concerto in B minor Op 17 (1900)
04 Allegro poco maestoso [11'55]
05 Adagio, molto espressivo [9'15]
06 Animé [9'32]

Dynamic Range Meter

foobar2000 1.2.6 / Dynamic Range Meter 1.1.1
log date: 2015-04-27 20:13:33
--------------------------------------------------------------------------------
Analyzed: Philippe Graffin, Royal Flemish Philharmonic, Martyn Brabbins / Romantic Violin Concerto 18 - Jongen: Violin Concerto; Lazzari: Rapsodie
--------------------------------------------------------------------------------
DR Peak RMS Duration Track
--------------------------------------------------------------------------------
DR13 -4.40 dB -25.02 dB 6:17 01-Fantasia in E major, Op 12
DR16 -0.10 dB -22.56 dB 16:52 02-Rapsodie in E minor
DR16 -0.81 dB -23.26 dB 11:53 03-Adagio symphonique in B major, Op 20
DR13 -0.10 dB -18.73 dB 11:55 04-Violin Concerto in B minor, Op 17 - I. Allegro poco maestoso
DR15 -1.53 dB -24.01 dB 9:15 05-Violin Concerto in B minor, Op 17 - II. Adagio, molto espressivo
DR15 -0.10 dB -21.19 dB 9:30 06-Violin Concerto in B minor, Op 17 - III. Animé
--------------------------------------------------------------------------------
Number of tracks: 6
Official DR value: DR15
Samplerate: 96000 Hz
Channels: 2
Bits per sample: 24
Bitrate: 2476 kbps
Codec: FLAC
================================================================================
[teatrix.ru].t21032.torrent 
Торрент: Зарегистрирован [ 2016-03-20 00:55 ] · F167AA006E9E8E50D9C7B74B68FAFFA47F6F5197

Скачать .torrent

Скачать

12 KB

Статус: проверено
Скачан: 0 раз
Размер: 1.13 GB
terms.php



Быстрый ответ

Имя:

      
Для отправки сообщений необходимо включить JavaScript
Показать сообщения:    

Текущее время: 07-Дек 19:22

Часовой пояс: UTC + 3


Вы можете начинать темы
Вы можете отвечать на сообщения
Вы не можете редактировать свои сообщения
Вы не можете удалять свои сообщения
Вы не можете голосовать в опросах
Вы не можете прикреплять файлы к сообщениям
Вы можете скачивать файлы