(Classical, 20th century) Astor Piazzolla - Sinfonia Buenos Aires; Bandoneon Concerto; Las Cuatro Estaciones Portenas - Daniel Binelli, Tianwa Yang, Nashville Symphony Orchestra, Giancarlo Guerrero - 2010, FLAC (image+.cue) lossless


 

[Цитировать]

Astor Piazzolla - Sinfonía Buenos Aires; Bandoneón Concerto; Las Cuatro Estaciones Porteñas - Daniel Binelli, Tianwa Yang, Nashville Symphony Orchestra, Giancarlo Guerrero
Жанр: Classical, 20th century
Год издания диска: 2010
Издатель (лейбл): Naxos
Номер по каталогу: 8.572271
Дата записи: 2009
Аудиокодек: FLAC
Тип рипа: image+.cue
Битрейт аудио: lossless
Продолжительность: 79:38
Источник: собственный рип
Наличие сканов в содержимом раздачи: да
Треклист:
Astor Piazzolla (1921-1992)
[1]-[3] Sinfonía Buenos Aires, Op. 15 (1951)*
[4]-[6] Concerto for Bandoneón, String Orchestra and Percussion, ‘Aconcagua’ (1979)*
[7]-[10] Las Cuatro Estaciones Porteñas (1964-70)**
(arr. Leonid Desyatnikov for violin and strings)
Исполнители:
Daniel Binelli bandoneón*
Tianwa Yang violin**
Nashville Symphony Orchestra
Giancarlo Guerrero

Лог создания рипа

Exact Audio Copy V1.0 beta 3 from 29. August 2011
EAC extraction logfile from 19. April 2015, 20:18
Nashville Symphony Orchestra, Giancarlo Guerrero / Piazzolla - Sinfonia Buenos Aires; Bandoneon Concerto; Las Cuatro Estaciones Portenas
Used drive : HL-DT-STDVDRAM GU70N Adapter: 0 ID: 0
Read mode : Secure
Utilize accurate stream : Yes
Defeat audio cache : Yes
Make use of C2 pointers : No
Read offset correction : 48
Overread into Lead-In and Lead-Out : No
Fill up missing offset samples with silence : Yes
Delete leading and trailing silent blocks : No
Null samples used in CRC calculations : Yes
Used interface : Native Win32 interface for Win NT & 2000
Used output format : User Defined Encoder
Selected bitrate : 128 kBit/s
Quality : High
Add ID3 tag : No
Command line compressor : C:\Program Files (x86)\Exact Audio Copy\Flac\flac.exe
Additional command line options : -V -8 -T "Date=%year%" -T "Genre=%genre%" %source%
TOC of the extracted CD
Track | Start | Length | Start sector | End sector
---------------------------------------------------------
1 | 0:00.00 | 8:42.25 | 0 | 39174
2 | 8:42.25 | 8:44.33 | 39175 | 78507
3 | 17:26.58 | 9:04.12 | 78508 | 119319
4 | 26:30.70 | 8:54.45 | 119320 | 159414
5 | 35:25.40 | 8:25.60 | 159415 | 197349
6 | 43:51.25 | 7:30.67 | 197350 | 231166
7 | 51:22.17 | 7:26.70 | 231167 | 264686
8 | 58:49.12 | 8:08.13 | 264687 | 301299
9 | 66:57.25 | 6:08.06 | 301300 | 328905
10 | 73:05.31 | 6:30.44 | 328906 | 358199
Range status and errors
Selected range
Filename C:\temp\Naxos_8.572271 - Piazzolla - Sinfonia Buenos Aires\Piazzolla - Sinfonia Buenos Aires.wav
Peak level 99.9 %
Extraction speed 2.3 X
Range quality 100.0 %
Test CRC 0ED39373
Copy CRC 0ED39373
Copy OK
No errors occurred
AccurateRip summary
Track 1 accurately ripped (confidence 5) [66DD6EF2] (AR v2)
Track 2 accurately ripped (confidence 5) [12A518D0] (AR v2)
Track 3 accurately ripped (confidence 5) [87181779] (AR v2)
Track 4 accurately ripped (confidence 5) [9B2DB223] (AR v2)
Track 5 accurately ripped (confidence 5) [7AAF010F] (AR v2)
Track 6 accurately ripped (confidence 5) [69FA372B] (AR v2)
Track 7 accurately ripped (confidence 5) [ECDE945C] (AR v2)
Track 8 accurately ripped (confidence 5) [8B19447B] (AR v2)
Track 9 accurately ripped (confidence 5) [F4DB30B1] (AR v2)
Track 10 accurately ripped (confidence 5) [119F153D] (AR v2)
All tracks accurately ripped
End of status report
==== Log checksum 46093A7337AF57F40F55B6D51E3635EC8B01A505D99B9E1079A2A551CBE94E60 ====



Показать сообщения:    

Текущее время: 03-Дек 18:37

Часовой пояс: UTC + 3


Вы не можете начинать темы
Вы не можете отвечать на сообщения
Вы не можете редактировать свои сообщения
Вы не можете удалять свои сообщения
Вы не можете голосовать в опросах
Вы не можете прикреплять файлы к сообщениям
Вы не можете скачивать файлы