Вильгельм Завоеватель / Guillaume le Conquérant (Фредерик Компэйн / Frédéric Compain) [2014, Документальный, история, биография, постановочный, IPTVRip]


Статистика раздачи [Обновить пиров]
Размер:  799 MB   |    Зарегистрирован:  8 месяцев 17 дней   |    Скачан:  0 раз

Полного источника не было: Никогда

 
   
 
 
 

[Цитировать]

Вильгельм Завоеватель / Guillaume le Conquérant
Дата/Год выпуска: 2014
Страна: Франция, Les Films d'Ici See more
Жанр: Документальный, история, биография, постановочный,
Продолжительность: 00:52:32
Перевод: Профессиональный (дублированный)
Доп. инфо о переводе: Видеофильм ТВ
Русские субтитры: нет
Оригинальная аудиодорожка: нет
Режиссер: Фредерик Компэйн / Frédéric Compain
Телеканал: История
Описание: Вильгельм был незаконным сыном Роберта I, герцога Нормандии. Он родился на севере Франции, в Фалезе. В возрасте 8 лет наследовал отцовский титул и до своего совершеннолетия постоянно подвергался нападкам сверстников из аристократических фамилий за свое происхождение. Благодаря покровительству французского короля Генриха I юный герцог смог удержаться на нормандском престоле, которому угрожали не только сильные соседи, но и местные бароны.
Еще юношей Вильгельм Нормандский проявил себя как воин и лидер. Достигнув совершеннолетия, он начал укреплять свою власть в герцогстве, силой оружия покончил с междоусобицей своевольных баронов. К тому времени у него уже имелось хотя и небольшое, но хорошо вооруженное и преданное войско.
Стремясь к королевской короне, герцог Вильгельм проявил большую настойчивость и дипломатическую твердость. Еще в 1061 году он убедил короля Эдуарда, который не имел потомства, поддержать его претензии на английский престол. Тот согласился, но перед самой смертью изменил свое решение в пользу своего шурина Гарольда Годвина...
Доп. информация: Оригинал имеет продолжительность 90 мин.
Сэмпл: http://multi-up.com/1045852
качество: IPTVRip
формат: AVI
Видео: 720x384 (1.88:1), 25 fps, XviD MPEG-4 ~1924 kbps avg, 0.28 bit/pixel
Аудио: 48 kHz, AC3 Dolby Digital, 2/0 (L,R) Surround Encoded ch, ~192 kbps

MediaInfo

Общее
Полное имя : W:\Pshichko66\Na zapis'\Документальные фильмы\Vil'gel'm Zavoevatel'.avi
Формат : AVI
Формат/Информация : Audio Video Interleave
Размер файла : 799 Мбайт
Продолжительность : 52 м.
Общий поток : 2126 Кбит/сек
Программа кодирования : VirtualDubMod 1.5.10.2 (build 2540/release)
Библиотека кодирования : VirtualDubMod build 2540/release
Видео
Идентификатор : 0
Формат : MPEG-4 Visual
Профиль формата : Advanced Simple@L5
Параметр BVOP формата : 2
Параметр QPel формата : Нет
Параметр GMC формата : Без точки перехода
Параметр матрицы формата : Выборочная
Идентификатор кодека : XVID
Идентификатор кодека/Подсказка : XviD
Продолжительность : 52 м.
Битрейт : 1925 Кбит/сек
Ширина : 720 пикселей
Высота : 384 пикселя
Соотношение сторон : 1,85:1
Частота кадров : 25,000 кадров/сек
Цветовое пространство : YUV
Субдискретизация насыщенности : 4:2:0
Битовая глубина : 8 бит
Тип развёртки : Прогрессивная
Метод сжатия : С потерями
Бит/(Пиксели*Кадры) : 0.278
Размер потока : 723 Мбайт (91%)
Библиотека кодирования : XviD 73
Аудио
Идентификатор : 1
Формат : AC-3
Формат/Информация : Audio Coding 3
Профиль формата : Dolby Digital
Расширение режима : CM (complete main)
Параметр Endianness формата : Big
Идентификатор кодека : 2000
Продолжительность : 52 м.
Вид битрейта : Постоянный
Битрейт : 192 Кбит/сек
Каналы : 2 канала
Расположение каналов : Front: L R
Частота : 48,0 КГц
Битовая глубина : 16 бит
Метод сжатия : С потерями
Размер потока : 72,2 Мбайт (9%)
Выравнивание : Разделение по промежуткам
Продолжительность промежутка : 40 мс. (1,00 видеокадр)
Время предзагрузки промежутка : 500 мс.

Скриншоты

[teatrix.ru].t21035.torrent 
Торрент: Зарегистрирован [ 2016-03-20 00:55 ] · A7E3A6C38A1EAFFE6414E4AE6606F4961365B45B

Скачать .torrent

Скачать

16 KB

Статус: проверено
Скачан: 0 раз
Размер: 799 MB
terms.php



Быстрый ответ

Имя:

      
Для отправки сообщений необходимо включить JavaScript
Показать сообщения:    

Текущее время: 07-Дек 00:53

Часовой пояс: UTC + 3


Вы можете начинать темы
Вы можете отвечать на сообщения
Вы не можете редактировать свои сообщения
Вы не можете удалять свои сообщения
Вы не можете голосовать в опросах
Вы не можете прикреплять файлы к сообщениям
Вы можете скачивать файлы