(Classical) Giacinto Scelsi · Duo, Soli, Trio A Cordes: Elegia per Ty, Divertimento N° 3, Coelocanth, etc. (R. Zimansky, C. Schiller, P. Demenga) · 1989, FLAC (tracks+.cue) lossless


 

[Цитировать]

Giacinto Scelsi
Duo, Soli, Trio À Cordes
Жанр: classical
Страна-производитель диска: France
Год издания диска: 1989
Издатель: Accord
Номер по каталогу: 200622
Дата записи: 1989
Аудиокодек: FLAC
Тип рипа: tracks+.cue
Битрейт аудио: lossless
Продолжительность: 00:58:41
Источник: скачано с what.cd
Наличие сканов в содержимом раздачи: да
Исполнители:
Robert Zimansky, violon
Christoph Schiller, alto
Patrick Demenga, violoncelle

Треклист

Elegia per Ty (1958/66)
01. I (4:36)
02. II (3:41)
03. III (3:15)

Divertimento N° 3 (1955)
04. I (3:06)
05. II (3:26)
06. III (2:08)
07. IV (2:54)

08. L’Âme ailée (1973) (5:40)
09. L’Âme ouverte (1973) (2:40)
Coelocanth (1955)
10. I (3:21)
11. II (3:32)
12. III (4:58)

Trio à cordes (1958)
13. I (4:46)
14. II (3:32)
15. III (3:12)
16. IV (3:56)

Лог создания рипа

Exact Audio Copy V1.0 beta 3 from 29. August 2011
EAC extraction logfile from 8. August 2013, 13:34
Giacinto Scelsi / Elegia Per Ty
Used drive : Optiarc DVDRWBD BC-5540H Adapter: 3 ID: 0
Read mode : Secure
Utilize accurate stream : Yes
Defeat audio cache : Yes
Make use of C2 pointers : No
Read offset correction : 48
Overread into Lead-In and Lead-Out : No
Fill up missing offset samples with silence : Yes
Delete leading and trailing silent blocks : No
Null samples used in CRC calculations : Yes
Used interface : Native Win32 interface for Win NT & 2000
Gap handling : Appended to previous track
Used output format : User Defined Encoder
Selected bitrate : 896 kBit/s
Quality : High
Add ID3 tag : No
Command line compressor : C:\Program Files (x86)\Exact Audio Copy\FLAC\FLAC.EXE
Additional command line options : -8 -V -T "ARTIST=%artist%" -T "TITLE=%title%" -T "ALBUM=%albumtitle%" -T "DATE=%year%" -T "TRACKNUMBER=%tracknr%" -T "GENRE=%genre%" -T "PERFORMER=%albuminterpret%" -T "COMPOSER=%composer%" %haslyrics%--tag-from-file=LYRICS="%lyricsfile%"%haslyrics% -T "ALBUMARTIST=%albumartist%" -T "DISCNUMBER=%cdnumber%" -T "TOTALDISCS=%totalcds%" -T "TOTALTRACKS=%numtracks%" -T "COMMENT=%comment%" %source% -o %dest%
TOC of the extracted CD
Track | Start | Length | Start sector | End sector
---------------------------------------------------------
1 | 0:00.33 | 4:35.65 | 33 | 20722
2 | 4:36.23 | 3:40.65 | 20723 | 37287
3 | 8:17.13 | 3:15.37 | 37288 | 51949
4 | 11:32.50 | 3:05.55 | 51950 | 65879
5 | 14:38.30 | 3:25.43 | 65880 | 81297
6 | 18:03.73 | 2:07.70 | 81298 | 90892
7 | 20:11.68 | 2:54.17 | 90893 | 103959
8 | 23:06.10 | 5:40.20 | 103960 | 129479
9 | 28:46.30 | 2:40.03 | 129480 | 141482
10 | 31:26.33 | 3:21.37 | 141483 | 156594
11 | 34:47.70 | 3:32.00 | 156595 | 172494
12 | 38:19.70 | 4:57.40 | 172495 | 194809
13 | 43:17.35 | 4:46.05 | 194810 | 216264
14 | 48:03.40 | 3:31.58 | 216265 | 232147
15 | 51:35.23 | 3:11.40 | 232148 | 246512
16 | 54:46.63 | 3:56.02 | 246513 | 264214
Track 1
Filename C:\Users\Dell\Desktop\Scelsi\Giacinto Scelsi - Elegia Per Ty (1989) [flac]\01 - Elegia Per Ty. pt 1.wav
Pre-gap length 0:00:02.44
Peak level 92.3 %
Extraction speed 9.5 X
Track quality 99.9 %
Test CRC 0E464D9C
Copy CRC 0E464D9C
Accurately ripped (confidence 2) [418E9395] (AR v2)
Copy OK
Track 2
Filename C:\Users\Dell\Desktop\Scelsi\Giacinto Scelsi - Elegia Per Ty (1989) [flac]\02 - Elegia Per Ty. pt 2.wav
Pre-gap length 0:00:05.50
Peak level 93.4 %
Extraction speed 11.2 X
Track quality 100.0 %
Test CRC A57FFBDB
Copy CRC A57FFBDB
Accurately ripped (confidence 2) [BC57C40B] (AR v2)
Copy OK
Track 3
Filename C:\Users\Dell\Desktop\Scelsi\Giacinto Scelsi - Elegia Per Ty (1989) [flac]\03 - Elegia Per Ty. pt 3.wav
Pre-gap length 0:00:04.30
Peak level 70.4 %
Extraction speed 11.8 X
Track quality 100.0 %
Test CRC F976304A
Copy CRC F976304A
Accurately ripped (confidence 2) [EE5833C0] (AR v2)
Copy OK
Track 4
Filename C:\Users\Dell\Desktop\Scelsi\Giacinto Scelsi - Elegia Per Ty (1989) [flac]\04 - Divertimento No. 3.1.wav
Pre-gap length 0:00:07.33
Peak level 46.0 %
Extraction speed 12.4 X
Track quality 100.0 %
Test CRC 2BB76F6E
Copy CRC 2BB76F6E
Accurately ripped (confidence 2) [54069987] (AR v2)
Copy OK
Track 5
Filename C:\Users\Dell\Desktop\Scelsi\Giacinto Scelsi - Elegia Per Ty (1989) [flac]\05 - Divertimento No. 3.2.wav
Pre-gap length 0:00:02.16
Peak level 41.8 %
Extraction speed 13.1 X
Track quality 100.0 %
Test CRC 06D0C8C5
Copy CRC 06D0C8C5
Accurately ripped (confidence 2) [A86D4E31] (AR v2)
Copy OK
Track 6
Filename C:\Users\Dell\Desktop\Scelsi\Giacinto Scelsi - Elegia Per Ty (1989) [flac]\06 - Divertimento No. 3.3.wav
Pre-gap length 0:00:03.06
Peak level 65.1 %
Extraction speed 13.0 X
Track quality 100.0 %
Test CRC 779C2ADD
Copy CRC 779C2ADD
Accurately ripped (confidence 2) [125AA175] (AR v2)
Copy OK
Track 7
Filename C:\Users\Dell\Desktop\Scelsi\Giacinto Scelsi - Elegia Per Ty (1989) [flac]\07 - Divertimento No. 3.4.wav
Pre-gap length 0:00:03.17
Peak level 88.6 %
Extraction speed 13.8 X
Track quality 100.0 %
Test CRC E092AD6A
Copy CRC E092AD6A
Accurately ripped (confidence 2) [2614C97F] (AR v2)
Copy OK
Track 8
Filename C:\Users\Dell\Desktop\Scelsi\Giacinto Scelsi - Elegia Per Ty (1989) [flac]\08 - L'Ame Ailee.wav
Pre-gap length 0:00:08.56
Peak level 21.0 %
Extraction speed 14.2 X
Track quality 99.9 %
Test CRC 73B4751D
Copy CRC 73B4751D
Accurately ripped (confidence 2) [DB175C56] (AR v2)
Copy OK
Track 9
Filename C:\Users\Dell\Desktop\Scelsi\Giacinto Scelsi - Elegia Per Ty (1989) [flac]\09 - L'Ame Ouverte.wav
Pre-gap length 0:00:13.96
Peak level 11.7 %
Extraction speed 14.5 X
Track quality 100.0 %
Test CRC 5A08F06E
Copy CRC 5A08F06E
Accurately ripped (confidence 2) [52E00848] (AR v2)
Copy OK
Track 10
Filename C:\Users\Dell\Desktop\Scelsi\Giacinto Scelsi - Elegia Per Ty (1989) [flac]\10 - Coelocanth. pt 1.wav
Pre-gap length 0:00:06.86
Peak level 93.2 %
Extraction speed 13.4 X
Track quality 99.9 %
Test CRC 2FBDBC08
Copy CRC 2FBDBC08
Accurately ripped (confidence 2) [F541CD25] (AR v2)
Copy OK
Track 11
Filename C:\Users\Dell\Desktop\Scelsi\Giacinto Scelsi - Elegia Per Ty (1989) [flac]\11 - Coelocanth. pt 2.wav
Pre-gap length 0:00:03.56
Peak level 92.7 %
Extraction speed 16.1 X
Track quality 100.0 %
Test CRC 3057C00A
Copy CRC 3057C00A
Accurately ripped (confidence 2) [5CCCD46E] (AR v2)
Copy OK
Track 12
Filename C:\Users\Dell\Desktop\Scelsi\Giacinto Scelsi - Elegia Per Ty (1989) [flac]\12 - Coelocanth. pt 3.wav
Pre-gap length 0:00:02.86
Peak level 93.1 %
Extraction speed 17.0 X
Track quality 100.0 %
Test CRC 8F2FEB5D
Copy CRC 8F2FEB5D
Accurately ripped (confidence 2) [40995292] (AR v2)
Copy OK
Track 13
Filename C:\Users\Dell\Desktop\Scelsi\Giacinto Scelsi - Elegia Per Ty (1989) [flac]\13 - Trio A Cordes . pt 1.wav
Pre-gap length 0:00:07.29
Peak level 40.6 %
Extraction speed 17.4 X
Track quality 100.0 %
Test CRC 96962941
Copy CRC 96962941
Accurately ripped (confidence 2) [8E3D3476] (AR v2)
Copy OK
Track 14
Filename C:\Users\Dell\Desktop\Scelsi\Giacinto Scelsi - Elegia Per Ty (1989) [flac]\14 - Trio A Cordes . pt 2.wav
Pre-gap length 0:00:04.76
Peak level 25.2 %
Extraction speed 17.4 X
Track quality 100.0 %
Test CRC 884EA847
Copy CRC 884EA847
Accurately ripped (confidence 2) [CAD3E1A2] (AR v2)
Copy OK
Track 15
Filename C:\Users\Dell\Desktop\Scelsi\Giacinto Scelsi - Elegia Per Ty (1989) [flac]\15 - Trio A Cordes . pt 3.wav
Pre-gap length 0:00:03.20
Peak level 27.9 %
Extraction speed 14.7 X
Track quality 99.9 %
Test CRC 9E926DD0
Copy CRC 9E926DD0
Accurately ripped (confidence 2) [8396E556] (AR v2)
Copy OK
Track 16
Filename C:\Users\Dell\Desktop\Scelsi\Giacinto Scelsi - Elegia Per Ty (1989) [flac]\16 - Trio A Cordes . pt 4.wav
Pre-gap length 0:00:04.50
Peak level 29.3 %
Extraction speed 17.4 X
Track quality 99.9 %
Test CRC A864378D
Copy CRC A864378D
Accurately ripped (confidence 2) [1BCB7BFD] (AR v2)
Copy OK
All tracks accurately ripped
No errors occurred
End of status report
---- CUETools DB Plugin V2.1.4
[CTDB TOCID: dPg_4uVKoA2OuR9Ige7OOSA7USo-] found
Submit result: already submitted
Track | CTDB Status
1 | (1/1) Accurately ripped
2 | (1/1) Accurately ripped
3 | (1/1) Accurately ripped
4 | (1/1) Accurately ripped
5 | (1/1) Accurately ripped
6 | (1/1) Accurately ripped
7 | (1/1) Accurately ripped
8 | (1/1) Accurately ripped
9 | (1/1) Accurately ripped
10 | (1/1) Accurately ripped
11 | (1/1) Accurately ripped
12 | (1/1) Accurately ripped
13 | (1/1) Accurately ripped
14 | (1/1) Accurately ripped
15 | (1/1) Accurately ripped
16 | (1/1) Accurately ripped
==== Log checksum D79B7DBEE012131602A991729A12308340FC47C4A964E8C8641556E31154FB72 ====

Содержание индексной карты (.CUE)

REM DATE 1989
REM DISCID 120DC210
REM COMMENT "ExactAudioCopy v1.0b3"
CATALOG 0000000000000
PERFORMER "R. Zimansky — C. Schiller — P. Demenga"
TITLE "Duo, Soli, Trio À Cordes"
FILE "01. Elegia per Ty · I (1958–66).wav" WAVE
TRACK 01 AUDIO
TITLE "Elegia per Ty · I (1958/66)"
PERFORMER "R. Zimansky — C. Schiller — P. Demenga"
PREGAP 00:00:33
INDEX 01 00:00:00
TRACK 02 AUDIO
TITLE "Elegia per Ty · II (1958/66)"
PERFORMER "R. Zimansky — C. Schiller — P. Demenga"
INDEX 00 04:30:27
FILE "02. Elegia per Ty · II (1958–66).wav" WAVE
INDEX 01 00:00:00
TRACK 03 AUDIO
TITLE "Elegia per Ty · III (1958/66)"
PERFORMER "R. Zimansky — C. Schiller — P. Demenga"
INDEX 00 03:36:42
FILE "03. Elegia per Ty · III (1958–66).wav" WAVE
INDEX 01 00:00:00
TRACK 04 AUDIO
TITLE "Divertimento N° 3 · I (1955)"
PERFORMER "R. Zimansky — C. Schiller — P. Demenga"
INDEX 00 03:08:12
FILE "04. Divertimento N° 3 · I (1955).wav" WAVE
INDEX 01 00:00:00
TRACK 05 AUDIO
TITLE "Divertimento N° 3 · II (1955)"
PERFORMER "R. Zimansky — C. Schiller — P. Demenga"
INDEX 00 03:03:43
FILE "05. Divertimento N° 3 · II (1955).wav" WAVE
INDEX 01 00:00:00
TRACK 06 AUDIO
TITLE "Divertimento N° 3 · III (1955)"
PERFORMER "R. Zimansky — C. Schiller — P. Demenga"
INDEX 00 03:22:38
FILE "06. Divertimento N° 3 · III (1955).wav" WAVE
INDEX 01 00:00:00
TRACK 07 AUDIO
TITLE "Divertimento N° 3 · IV (1955)"
PERFORMER "R. Zimansky — C. Schiller — P. Demenga"
INDEX 00 02:04:57
FILE "07. Divertimento N° 3 · IV (1955).wav" WAVE
INDEX 01 00:00:00
TRACK 08 AUDIO
TITLE "L’Âme ailée (1973)"
PERFORMER "R. Zimansky — C. Schiller — P. Demenga"
INDEX 00 02:45:50
FILE "08. L’Âme ailée (1973).wav" WAVE
INDEX 01 00:00:00
TRACK 09 AUDIO
TITLE "L’Âme ouverte (1973)"
PERFORMER "R. Zimansky — C. Schiller — P. Demenga"
INDEX 00 05:26:23
FILE "09. L’Âme ouverte (1973).wav" WAVE
INDEX 01 00:00:00
TRACK 10 AUDIO
TITLE "Coelocanth · I (1955)"
PERFORMER "R. Zimansky — C. Schiller — P. Demenga"
INDEX 00 02:33:13
FILE "10. Coelocanth · I (1955).wav" WAVE
INDEX 01 00:00:00
TRACK 11 AUDIO
TITLE "Coelocanth · II (1955)"
PERFORMER "R. Zimansky — C. Schiller — P. Demenga"
INDEX 00 03:17:70
FILE "11. Coelocanth · II (1955).wav" WAVE
INDEX 01 00:00:00
TRACK 12 AUDIO
TITLE "Coelocanth · III (1955)"
PERFORMER "R. Zimansky — C. Schiller — P. Demenga"
INDEX 00 03:29:10
FILE "12. Coelocanth · III (1955).wav" WAVE
INDEX 01 00:00:00
TRACK 13 AUDIO
TITLE "Trio A Cordes . pt 1"
PERFORMER "R. Zimansky — C. Schiller — P. Demenga"
INDEX 00 04:50:18
FILE "13. Trio à cordes · I (1958).wav" WAVE
INDEX 01 00:00:00
TRACK 14 AUDIO
TITLE "Trio à cordes · II (1958)"
PERFORMER "R. Zimansky — C. Schiller — P. Demenga"
INDEX 00 04:41:23
FILE "14. Trio à cordes · II (1958).wav" WAVE
INDEX 01 00:00:00
TRACK 15 AUDIO
TITLE "Trio à cordes · III (1958)"
PERFORMER "R. Zimansky — C. Schiller — P. Demenga"
INDEX 00 03:28:43
FILE "15. Trio à cordes · III (1958).wav" WAVE
INDEX 01 00:00:00
TRACK 16 AUDIO
TITLE "Trio à cordes · IV (1958)"
PERFORMER "R. Zimansky — C. Schiller — P. Demenga"
INDEX 00 03:07:02
FILE "16. Trio à cordes · IV (1958).wav" WAVE
INDEX 01 00:00:00



Показать сообщения:    

Текущее время: 11-Дек 03:23

Часовой пояс: UTC + 3


Вы не можете начинать темы
Вы не можете отвечать на сообщения
Вы не можете редактировать свои сообщения
Вы не можете удалять свои сообщения
Вы не можете голосовать в опросах
Вы не можете прикреплять файлы к сообщениям
Вы не можете скачивать файлы