(Classical) Giacinto Scelsi · Tre canti popolari, Duo for violin & cello, Wo Ma, Sa Uh, Aitsi (Helix Ensemble, J.-P. Dessy, G.-A. Van Dam, P. Gerimon, L. Grauman, M. Pousseur, J.-L. Fafchamps, A. Stordeur) · 1992, FLAC (tracks+.cue) lossless


 

[Цитировать]

Giacinto Scelsi
Tre canti popolari
Жанр: classical
Страна-производитель диска: Belgium
Год издания диска: 1992
Издатель: Sub Rosa
Номер по каталогу: SR51
Дата записи: 1991–1992
Аудиокодек: FLAC
Тип рипа: tracks+.cue
Битрейт аудио: lossless
Продолжительность: 00:46:51
Источник: what.cd
Сканов в раздаче нет
Исполнители указаны к каждому произведению

Треклист

Tre canti popolari (1958)
01. I (3:34)
02. II (3:41)
03. III (4:40)

Helix Ensemble
Duo for violin & cello (1965)
04. I (4:21)
05. II (5:05)

Jean-Paul Dessy (cello), Georg-Alexander Van Dam (violin)
Wo Ma, songs for bass voice (1960)
06. N° 1 (3:03)
07. N° 2 (4:16)

Paul Gérimon
Sa Uh, liturgia for two female voices (1973)
08. N° 1 (5:58)
09. N° 2 (5:51)

Lucy Grauman (contralto), Marianne Pousseur (soprano)
10. Aïtsi, for piano (1974) (6:23)
Jean-Luc Fafchamps (piano), André Stordeur (effects: additional distortion)

Лог создания рипа

Exact Audio Copy V1.0 beta 3 from 29. August 2011
EAC extraction logfile from 29. May 2013, 7:16
Giacinto Scelsi / Tre Canti Popolari
Used drive : HL-DT-STDVDRAM GH24NS70 Adapter: 6 ID: 0
Read mode : Secure
Utilize accurate stream : Yes
Defeat audio cache : Yes
Make use of C2 pointers : No
Read offset correction : 667
Overread into Lead-In and Lead-Out : No
Fill up missing offset samples with silence : Yes
Delete leading and trailing silent blocks : No
Null samples used in CRC calculations : Yes
Used interface : Native Win32 interface for Win NT & 2000
Gap handling : Appended to previous track
Used output format : User Defined Encoder
Selected bitrate : 1024 kBit/s
Quality : High
Add ID3 tag : No
Command line compressor : C:\Program Files\Exact Audio Copy\FLAC\FLAC.EXE
Additional command line options : -8 -V -T "ARTIST=%artist%" -T "TITLE=%title%" -T "ALBUM=%albumtitle%" -T "DATE=%year%" -T "TRACKNUMBER=%tracknr%" -T "GENRE=%genre%" -T "PERFORMER=%albuminterpret%" -T "COMPOSER=%composer%" %haslyrics%--tag-from-file=LYRICS="%lyricsfile%"%haslyrics% -T "ALBUMARTIST=%albumartist%" -T "DISCNUMBER=%cdnumber%" -T "TOTALDISCS=%totalcds%" -T "TOTALTRACKS=%numtracks%" -T "COMMENT=%comment%" %source% -o %dest%
TOC of the extracted CD
Track | Start | Length | Start sector | End sector
---------------------------------------------------------
1 | 0:00.00 | 3:34.25 | 0 | 16074
2 | 3:34.25 | 3:40.55 | 16075 | 32629
3 | 7:15.05 | 4:40.22 | 32630 | 53651
4 | 11:55.27 | 4:20.60 | 53652 | 73211
5 | 16:16.12 | 5:05.10 | 73212 | 96096
6 | 21:21.22 | 3:02.40 | 96097 | 109786
7 | 24:23.62 | 4:15.48 | 109787 | 128959
8 | 28:39.35 | 5:58.10 | 128960 | 155819
9 | 34:37.45 | 5:51.22 | 155820 | 182166
10 | 40:28.67 | 6:22.38 | 182167 | 210854
Track 1
Filename C:\Documents and Settings\User\Desktop\New Ripped Music\Giacinto Scelsi - Tre Canti Popolari (1992) [FLAC]\01 - Canti (3) popolari, for 4 part mixed choir.wav
Pre-gap length 0:00:02.00
Peak level 96.3 %
Extraction speed 4.3 X
Track quality 100.0 %
Test CRC E6B70743
Copy CRC E6B70743
Accurately ripped (confidence 1) [E691E779] (AR v1)
Copy OK
Track 2
Filename C:\Documents and Settings\User\Desktop\New Ripped Music\Giacinto Scelsi - Tre Canti Popolari (1992) [FLAC]\02 - Canti (3) popolari, for 4 part mixed choir.wav
Peak level 98.9 %
Extraction speed 3.9 X
Track quality 99.9 %
Test CRC ACC95DFA
Copy CRC ACC95DFA
Accurately ripped (confidence 1) [39CAF494] (AR v1)
Copy OK
Track 3
Filename C:\Documents and Settings\User\Desktop\New Ripped Music\Giacinto Scelsi - Tre Canti Popolari (1992) [FLAC]\03 - Canti (3) popolari, for 4 part mixed choir.wav
Peak level 99.4 %
Extraction speed 5.4 X
Track quality 100.0 %
Test CRC 995FB061
Copy CRC 995FB061
Accurately ripped (confidence 1) [B8BC0FD7] (AR v1)
Copy OK
Track 4
Filename C:\Documents and Settings\User\Desktop\New Ripped Music\Giacinto Scelsi - Tre Canti Popolari (1992) [FLAC]\04 - Duo for violin & cello (or bass).wav
Pre-gap length 0:00:08.20
Peak level 97.5 %
Extraction speed 5.6 X
Track quality 100.0 %
Test CRC AC44ADEC
Copy CRC AC44ADEC
Accurately ripped (confidence 1) [4CC9762C] (AR v1)
Copy OK
Track 5
Filename C:\Documents and Settings\User\Desktop\New Ripped Music\Giacinto Scelsi - Tre Canti Popolari (1992) [FLAC]\05 - Duo for violin & cello (or bass).wav
Pre-gap length 0:00:04.33
Peak level 68.1 %
Extraction speed 5.4 X
Track quality 99.9 %
Test CRC B1FC573E
Copy CRC B1FC573E
Accurately ripped (confidence 1) [786FBD48] (AR v1)
Copy OK
Track 6
Filename C:\Documents and Settings\User\Desktop\New Ripped Music\Giacinto Scelsi - Tre Canti Popolari (1992) [FLAC]\06 - Wo-Ma, song for bass voice.wav
Pre-gap length 0:00:09.46
Peak level 100.0 %
Extraction speed 6.0 X
Track quality 100.0 %
Test CRC B76AE406
Copy CRC B76AE406
Accurately ripped (confidence 1) [BF2BF511] (AR v1)
Copy OK
Track 7
Filename C:\Documents and Settings\User\Desktop\New Ripped Music\Giacinto Scelsi - Tre Canti Popolari (1992) [FLAC]\07 - Wo-Ma, song for bass voice.wav
Pre-gap length 0:00:02.02
Peak level 94.0 %
Extraction speed 5.6 X
Track quality 99.9 %
Test CRC 4B350C47
Copy CRC 4B350C47
Accurately ripped (confidence 1) [FE66DBA6] (AR v1)
Copy OK
Track 8
Filename C:\Documents and Settings\User\Desktop\New Ripped Music\Giacinto Scelsi - Tre Canti Popolari (1992) [FLAC]\08 - Sauh I & II ''Liturgy'', for 2 female voices.wav
Pre-gap length 0:00:08.73
Peak level 98.1 %
Extraction speed 7.3 X
Track quality 100.0 %
Test CRC FDC29B8A
Copy CRC FDC29B8A
Accurately ripped (confidence 1) [45868162] (AR v1)
Copy OK
Track 9
Filename C:\Documents and Settings\User\Desktop\New Ripped Music\Giacinto Scelsi - Tre Canti Popolari (1992) [FLAC]\09 - Sauh I & II ''Liturgy'', for 2 female voices.wav
Pre-gap length 0:00:01.93
Peak level 99.5 %
Extraction speed 7.8 X
Track quality 100.0 %
Test CRC 8AFD2B34
Copy CRC 8AFD2B34
Accurately ripped (confidence 1) [DC6A52BB] (AR v1)
Copy OK
Track 10
Filename C:\Documents and Settings\User\Desktop\New Ripped Music\Giacinto Scelsi - Tre Canti Popolari (1992) [FLAC]\10 - Aitsi, for electronically prepared piano (later recast as String Quartet No. 5).wav
Pre-gap length 0:00:08.89
Peak level 95.8 %
Extraction speed 7.3 X
Track quality 99.9 %
Test CRC DA2AED1F
Copy CRC DA2AED1F
Accurately ripped (confidence 1) [A975C8E4] (AR v1)
Copy OK
All tracks accurately ripped
No errors occurred
End of status report
---- CUETools DB Plugin V2.1.3
[CTDB TOCID: f3BJ2q9orBAqpbLAA66ugsZlNsM-] found, Submit result: f3BJ2q9orBAqpbLAA66ugsZlNsM- has been confirmed
[c58e3bd4] (1/1) Accurately ripped
==== Log checksum 526E44DFB777CAC3F9FC01E097C97D15BB3A55B46FEA5FC1BD52263DA73F68EE ====

Содержание индексной карты (.CUE)

REM DATE 1992
REM DISCID 840AFB0A
REM COMMENT "ExactAudioCopy v1.0b3"
CATALOG 5413356805123
PERFORMER "Various performers"
TITLE "Tre canti popolari"
FILE "01. Tre canti popolari · I (1958).wav" WAVE
TRACK 01 AUDIO
TITLE "Tre canti popolari · I (1958)"
PERFORMER "Helix Ensemble"
INDEX 01 00:00:00
FILE "02. Tre canti popolari · II (1958).wav" WAVE
TRACK 02 AUDIO
TITLE "Tre canti popolari · II (1958)"
PERFORMER "Helix Ensemble"
INDEX 01 00:00:00
FILE "03. Tre canti popolari · III (1958).wav" WAVE
TRACK 03 AUDIO
TITLE "Tre canti popolari · III (1958)"
PERFORMER "Helix Ensemble"
INDEX 01 00:00:00
TRACK 04 AUDIO
TITLE "Duo for violin & cello · I (1965)"
PERFORMER "J.-P. Dessy, G.-A. Van Dam"
INDEX 00 04:32:07
FILE "04. Duo for violin & cello · I (1965).wav" WAVE
INDEX 01 00:00:00
TRACK 05 AUDIO
TITLE "Duo for violin & cello · II (1965)"
PERFORMER "J.-P. Dessy, G.-A. Van Dam"
INDEX 00 04:16:35
FILE "05. Duo for violin & cello · II (1965).wav" WAVE
INDEX 01 00:00:00
TRACK 06 AUDIO
TITLE "Wo Ma, song for bass voice N° 1 (1960)"
PERFORMER "Paul Gérimon"
INDEX 00 04:55:50
FILE "06. Wo Ma, song for bass voice N° 1 (1960).wav" WAVE
INDEX 01 00:00:00
TRACK 07 AUDIO
TITLE "Wo Ma, song for bass voice N° 2 (1960)"
PERFORMER "Paul Gérimon"
INDEX 00 03:00:38
FILE "07. Wo Ma, song for bass voice N° 2 (1960).wav" WAVE
INDEX 01 00:00:00
TRACK 08 AUDIO
TITLE "Sa Uh, liturgia for two female voices N° 1 (1973)"
PERFORMER "L. Grauman, M. Pousseur"
INDEX 00 04:06:68
FILE "08. Sa Uh, liturgia for two female voices N° 1 (1973).wav" WAVE
INDEX 01 00:00:00
TRACK 09 AUDIO
TITLE "Sa Uh, liturgia for two female voices N° 2 (1973)"
PERFORMER "L. Grauman, M. Pousseur"
INDEX 00 05:56:15
FILE "09. Sa Uh, liturgia for two female voices N° 2 (1973).wav" WAVE
INDEX 01 00:00:00
TRACK 10 AUDIO
TITLE "Aïtsi, for piano (1974)"
PERFORMER "J.-L. Fafchamps, A. Stordeur"
INDEX 00 05:42:30
FILE "10. Aïtsi, for piano (1974).wav" WAVE
INDEX 01 00:00:00



Показать сообщения:    

Текущее время: 05-Дек 15:34

Часовой пояс: UTC + 3


Вы не можете начинать темы
Вы не можете отвечать на сообщения
Вы не можете редактировать свои сообщения
Вы не можете удалять свои сообщения
Вы не можете голосовать в опросах
Вы не можете прикреплять файлы к сообщениям
Вы не можете скачивать файлы