(Cello, Classical) Christine Walevska - Legendary Recordings (Хачатурян, Saint-Saens, Vivaldi, Dvorak, Bloch, Haydn, Schumann, Прокофьев) - 2010, FLAC (tracks), lossless


Статистика раздачи [Обновить пиров]
Размер:  1.54 GB   |    Зарегистрирован:  8 месяцев 20 дней   |    Скачан:  1 раз

Полного источника не было: 13 дней

 
   
 
 
 

[Цитировать]

-Christine Walevska
∙ Sir Alexander Gibson ∙ Edo de Waart ∙ Eliahu Inbal ∙ Kurt Redel ∙
Legendary Recordings


Жанр: Cello, Classical
Страна-производитель диска: Japan
Год издания диска: 2010
Издатель (лейбл): Decca (Philips)
Дата записи: 1970-1976
Аудиокодек: FLAC
Тип рипа: tracks
Битрейт аудио: lossless
Источник: скачано с
сайт-источник/ник/другое: (by user londywondy)
Наличие сканов в содержимом раздачи: да

Треклист / ИсполнителиCD 1 (Ernest Bloch ∙ Pyotr Ilyich Tchaikovsky ∙ Robert Schumann ∙ Max Bruch)

Ernest Bloch
1 - Schelomo: Rhapsodie Hébraïque for Violoncello and Orchestra
Max Bruch
2 - Kol Nidrei, Op. 47
Robert Schumann
The Cello Concerto in A minor, Op. 129
3 - Nicht zu schnell (A minor)
4 - Langsam (F major)
5 - Sehr lebhaft (A minor – A major)
Eliahu Inbal / Orchestre Philharmonique de Monte-Carlo
Pyotr Ilyich Tchaikovsky
6 - The Variations on a Rococo Theme, Op. 33
Sir Alexander Gibson / London Philharmonic Orchestra

CD 2 (Antonín Dvořák ∙ Joseph Haydn)

Antonín Dvořák
Cello Concerto in B minor, Op. 104
1 - Allegro
2 - Adagio, ma non troppo
3 - Finale: Allegro moderato – Andante – Allegro vivo
Sir Alexander Gibson / London Philharmonic Orchestra
Joseph Haydn
Cello Concerto No. 1 in C Major, Hob. VIIb/1
4 – Moderato
5 – Adagio
6 - Allegro molto
Edo de Waart / English Chamber Orchestra

CD 3 (Sergei Prokofiev ∙ Aram Khachaturian)

Sergey Prokofiev
Cello Concerto in E minor, Op. 58
1 - Andante – Poco meno mosso (andante assai) – Adagio
2 - Allegro giusto
3 - Tema (allegro) – Interludio 1 – Variations 1–3 – Interludio 2 – Variation 4 – Reminiscenza (meno mosso) – Coda (poco sostenuto) – Più mosso
Aram Khachaturian
Cello Concerto in E minor
1 - Allegro moderato
2 - Andante sostenuto – attaca
3 - Allegro (a battuta)
Eliahu Inbal / Orchestre Philharmonique de Monte-Carlo

CD 4 (Camille Saint-Saëns)

Camille Saint-Saëns
1 - Cello Concerto No. 1 in A minor, Op. 33
(Allegro non troppo - Allegretto con moto - Tempo primo)
Cello Concerto No. 2 in D minor, Op. 119
2 – Allegro moderato e maestoso
3 – Andante sostenuto
Suite for Cello and Piano (Orchestra), Op. 16
4 – Prélude: Moderato assai
5 – Sérénade: Andantino
6 – Scherzo: Allegro grazioso
7 – Romance: Adagio
8 – Finale: Allegro con brio
9 – Allegro appassionato in B minor (version with orchestra, R 119)
Eliahu Inbal / Orchestre Philharmonique de Monte-Carlo

CD 5 (Antonio Vivaldi ∙ Joseph Haydn)

Antonio Vivaldi
Cello Concerto in G major, RV 414
1 – Allegro molto
2 – Largo
3 – Allegro
Cello Concerto in A minor, RV 418
5 – Allegro
6 – (Largo)
7 – Allegro
Cello Concerto in G minor, RV 417
8 – Allegro
9 – Andante
10 – Allegro
Cello Concerto in A Minor, RV420
11 – Andante
12 – Adagio
13 – Allegro
Kurt Redel / Netherlands Chamber Orchestra
Joseph Haydn
Concerto No. 2 in D Major for cello and orchestra, Hob. VIIb/2, Op. 101
14 – Allegro moderato
15 – Adagio
16 – Rondo (Allegro)
Edo de Waart / English Chamber Orchestra

Лог создания рипаCD 1

Exact Audio Copy V1.0 beta 3 from 29. August 2011
EAC extraction logfile from 27. April 2015, 15:10
Christine Walevska / Walevska: Legendary Recordings
Used drive : HL-DT-STBD-RE WH16NS40 Adapter: 1 ID: 0
Read mode : Secure
Utilize accurate stream : Yes
Defeat audio cache : Yes
Make use of C2 pointers : No
Read offset correction : 6
Overread into Lead-In and Lead-Out : No
Fill up missing offset samples with silence : Yes
Delete leading and trailing silent blocks : No
Null samples used in CRC calculations : Yes
Used interface : Native Win32 interface for Win NT & 2000
Gap handling : Appended to previous track
Used output format : User Defined Encoder
Selected bitrate : 1024 kBit/s
Quality : High
Add ID3 tag : No
Command line compressor : C:\Program Files (x86)\Exact Audio Copy\FLAC\FLAC.EXE
Additional command line options : -8 -V -T "ARTIST=%artist%" -T "TITLE=%title%" -T "ALBUM=%albumtitle%" -T "DATE=%year%" -T "TRACKNUMBER=%tracknr%" -T "GENRE=%genre%" -T "PERFORMER=%albuminterpret%" -T "COMPOSER=%composer%" %haslyrics%--tag-from-file=LYRICS="%lyricsfile%"%haslyrics% -T "ALBUMARTIST=%albumartist%" -T "DISCNUMBER=%cdnumber%" -T "TOTALDISCS=%totalcds%" -T "TOTALTRACKS=%numtracks%" -T "COMMENT=%comment%" %source% -o %dest%
TOC of the extracted CD
Track | Start | Length | Start sector | End sector
---------------------------------------------------------
1 | 0:00.00 | 20:04.05 | 0 | 90304
2 | 20:04.05 | 10:49.28 | 90305 | 139007
3 | 30:53.33 | 11:08.45 | 139008 | 189152
4 | 42:02.03 | 4:09.12 | 189153 | 207839
5 | 46:11.15 | 9:45.00 | 207840 | 251714
6 | 55:56.15 | 18:03.60 | 251715 | 332999
Track 1
Filename D:\Collection\Christine Walevska\Walevska- Legendary Recordings\01 Bloch- Hebraic Rhapsody ''Schelomo''.wav
Pre-gap length 0:00:02.00
Peak level 91.0 %
Extraction speed 3.4 X
Track quality 100.0 %
Test CRC 48230455
Copy CRC 48230455
Cannot be verified as accurate (confidence 2) [B9C221EC], AccurateRip returned [1649F7CC] (AR v2)
Copy OK
Track 2
Filename D:\Collection\Christine Walevska\Walevska- Legendary Recordings\02 Bruch- Kol Nidrei, op.47.wav
Pre-gap length 0:00:06.86
Peak level 35.6 %
Extraction speed 1.7 X
Track quality 99.9 %
Test CRC FCE63612
Copy CRC FCE63612
Cannot be verified as accurate (confidence 2) [BDA8B2DD], AccurateRip returned [9510EE96] (AR v2)
Copy OK
Track 3
Filename D:\Collection\Christine Walevska\Walevska- Legendary Recordings\03 Schumann- Cello conserto in A minor, op.129.wav
Pre-gap length 0:00:07.66
Peak level 54.4 %
Extraction speed 2.0 X
Track quality 100.0 %
Test CRC 2032380B
Copy CRC 2032380B
Cannot be verified as accurate (confidence 2) [7782D60A], AccurateRip returned [60AA41CE] (AR v2)
Copy OK
Track 4
Filename D:\Collection\Christine Walevska\Walevska- Legendary Recordings\04 Schumann- Cello conserto in A minor, op.129.wav
Peak level 41.4 %
Extraction speed 2.0 X
Track quality 100.0 %
Test CRC 410D9D44
Copy CRC 410D9D44
Cannot be verified as accurate (confidence 2) [9168368D], AccurateRip returned [D9FB0EC8] (AR v2)
Copy OK
Track 5
Filename D:\Collection\Christine Walevska\Walevska- Legendary Recordings\05 Schumann- Cello conserto in A minor, op.129.wav
Peak level 64.4 %
Extraction speed 2.2 X
Track quality 100.0 %
Test CRC 2BBCF84A
Copy CRC 2BBCF84A
Cannot be verified as accurate (confidence 2) [DA70B5E1], AccurateRip returned [FD5237B4] (AR v2)
Copy OK
Track 6
Filename D:\Collection\Christine Walevska\Walevska- Legendary Recordings\06 Tchaikovsky- Variations on a Rococo theme.wav
Pre-gap length 0:00:06.80
Peak level 91.8 %
Extraction speed 2.5 X
Track quality 100.0 %
Test CRC 3E495E00
Copy CRC 3E495E00
Cannot be verified as accurate (confidence 2) [3D9310C1], AccurateRip returned [8232F576] (AR v2)
Copy OK
No tracks could be verified as accurate
You may have a different pressing from the one(s) in the database
No errors occurred
End of status report
---- CUETools DB Plugin V2.1.3
[CTDB TOCID: XAJ4eEYGsLdr_V.jKYt4lg4_QKw-] found, Submit result: XAJ4eEYGsLdr_V.jKYt4lg4_QKw- has been confirmed
[3204876b] (5/5) Accurately ripped
==== Log checksum 4C9620F597CFAD4173595C657D8BED9D5F6923FB592267AD3EBF2D776829422A ====
------------------------------------------------------------

CD 2

Exact Audio Copy V1.0 beta 3 from 29. August 2011
EAC extraction logfile from 27. April 2015, 15:10
Christine Walevska / Walevska: Legendary Recordings
Used drive : HL-DT-STBD-RE WH16NS40 Adapter: 2 ID: 0
Read mode : Secure
Utilize accurate stream : Yes
Defeat audio cache : Yes
Make use of C2 pointers : No
Read offset correction : 6
Overread into Lead-In and Lead-Out : No
Fill up missing offset samples with silence : Yes
Delete leading and trailing silent blocks : No
Null samples used in CRC calculations : Yes
Used interface : Native Win32 interface for Win NT & 2000
Gap handling : Appended to previous track
Used output format : User Defined Encoder
Selected bitrate : 1024 kBit/s
Quality : High
Add ID3 tag : No
Command line compressor : C:\Program Files (x86)\Exact Audio Copy\FLAC\FLAC.EXE
Additional command line options : -8 -V -T "ARTIST=%artist%" -T "TITLE=%title%" -T "ALBUM=%albumtitle%" -T "DATE=%year%" -T "TRACKNUMBER=%tracknr%" -T "GENRE=%genre%" -T "PERFORMER=%albuminterpret%" -T "COMPOSER=%composer%" %haslyrics%--tag-from-file=LYRICS="%lyricsfile%"%haslyrics% -T "ALBUMARTIST=%albumartist%" -T "DISCNUMBER=%cdnumber%" -T "TOTALDISCS=%totalcds%" -T "TOTALTRACKS=%numtracks%" -T "COMMENT=%comment%" %source% -o %dest%
TOC of the extracted CD
Track | Start | Length | Start sector | End sector
---------------------------------------------------------
1 | 0:00.00 | 15:26.01 | 0 | 69450
2 | 15:26.01 | 11:14.74 | 69451 | 120074
3 | 26:41.00 | 13:08.00 | 120075 | 179174
4 | 39:49.00 | 10:40.00 | 179175 | 227174
5 | 50:29.00 | 9:27.00 | 227175 | 269699
6 | 59:56.00 | 8:11.15 | 269700 | 306539
Track 1
Filename D:\Collection\Christine Walevska\Walevska- Legendary Recordings\01 Dvorбk- Cello concerto in B minor, op.104.wav
Pre-gap length 0:00:02.00
Peak level 96.0 %
Extraction speed 1.7 X
Track quality 100.0 %
Test CRC 398149D8
Copy CRC 398149D8
Accurately ripped (confidence 1) [99ABB94C] (AR v2)
Copy OK
Track 2
Filename D:\Collection\Christine Walevska\Walevska- Legendary Recordings\02 Dvorбk- Cello concerto in B minor, op.104.wav
Pre-gap length 0:00:05.00
Peak level 68.0 %
Extraction speed 1.7 X
Track quality 100.0 %
Test CRC 5DDA7887
Copy CRC 5DDA7887
Accurately ripped (confidence 1) [FE8519D6] (AR v2)
Copy OK
Track 3
Filename D:\Collection\Christine Walevska\Walevska- Legendary Recordings\03 Dvorбk- Cello concerto in B minor, op.104.wav
Pre-gap length 0:00:01.98
Peak level 83.4 %
Extraction speed 1.9 X
Track quality 100.0 %
Test CRC 43C6D56C
Copy CRC 43C6D56C
Accurately ripped (confidence 1) [6104625F] (AR v2)
Copy OK
Track 4
Filename D:\Collection\Christine Walevska\Walevska- Legendary Recordings\04 Haydn- Cello concerto in C major, Hob.VII b-1.wav
Pre-gap length 0:00:08.98
Peak level 69.2 %
Extraction speed 2.1 X
Track quality 100.0 %
Test CRC F4CBBF34
Copy CRC F4CBBF34
Accurately ripped (confidence 1) [1FCC1967] (AR v2)
Copy OK
Track 5
Filename D:\Collection\Christine Walevska\Walevska- Legendary Recordings\05 Haydn- Cello concerto in C major, Hob.VII b-1.wav
Pre-gap length 0:00:02.98
Peak level 51.5 %
Extraction speed 2.3 X
Track quality 100.0 %
Test CRC A3C9C36C
Copy CRC A3C9C36C
Accurately ripped (confidence 1) [6B5CC54A] (AR v2)
Copy OK
Track 6
Filename D:\Collection\Christine Walevska\Walevska- Legendary Recordings\06 Haydn- Cello concerto in C major, Hob.VII b-1.wav
Pre-gap length 0:00:01.98
Peak level 65.6 %
Extraction speed 2.4 X
Track quality 100.0 %
Test CRC 76BF1B6D
Copy CRC 76BF1B6D
Accurately ripped (confidence 1) [BDA8CE80] (AR v2)
Copy OK
All tracks accurately ripped
No errors occurred
End of status report
---- CUETools DB Plugin V2.1.3
[CTDB TOCID: PJb8HmgQvditejLNyYiDb4Etxeo-] found, Submit result: PJb8HmgQvditejLNyYiDb4Etxeo- has been confirmed
[7bf8cb84] (3/3) Accurately ripped
==== Log checksum 7D87933DF1404BCA7F1BEA22DB6D59D77635CD4D93B9B021A55A50E26BDAECA6 ====
------------------------------------------------------------

CD 3

Exact Audio Copy V1.0 beta 3 from 29. August 2011
EAC extraction logfile from 27. April 2015, 16:50
Christine Walevska / Walevska- Legendary Recordings
Used drive : HL-DT-STBD-RE WH16NS40 Adapter: 1 ID: 0
Read mode : Secure
Utilize accurate stream : Yes
Defeat audio cache : Yes
Make use of C2 pointers : No
Read offset correction : 6
Overread into Lead-In and Lead-Out : No
Fill up missing offset samples with silence : Yes
Delete leading and trailing silent blocks : No
Null samples used in CRC calculations : Yes
Used interface : Native Win32 interface for Win NT & 2000
Gap handling : Appended to previous track
Used output format : User Defined Encoder
Selected bitrate : 1024 kBit/s
Quality : High
Add ID3 tag : No
Command line compressor : C:\Program Files (x86)\Exact Audio Copy\FLAC\FLAC.EXE
Additional command line options : -8 -V -T "ARTIST=%artist%" -T "TITLE=%title%" -T "ALBUM=%albumtitle%" -T "DATE=%year%" -T "TRACKNUMBER=%tracknr%" -T "GENRE=%genre%" -T "PERFORMER=%albuminterpret%" -T "COMPOSER=%composer%" %haslyrics%--tag-from-file=LYRICS="%lyricsfile%"%haslyrics% -T "ALBUMARTIST=%albumartist%" -T "DISCNUMBER=%cdnumber%" -T "TOTALDISCS=%totalcds%" -T "TOTALTRACKS=%numtracks%" -T "COMMENT=%comment%" %source% -o %dest%
TOC of the extracted CD
Track | Start | Length | Start sector | End sector
---------------------------------------------------------
1 | 0:00.33 | 5:23.00 | 33 | 24257
2 | 5:23.33 | 13:10.50 | 24258 | 83557
3 | 18:34.08 | 12:27.25 | 83558 | 139607
4 | 31:01.33 | 14:51.00 | 139608 | 206432
5 | 45:52.33 | 7:40.50 | 206433 | 240982
6 | 53:33.08 | 9:37.25 | 240983 | 284282
Track 1
Filename D:\Collection\Various Artists\Walevska- Legendary Recordings\01 Prokofiev - Prokofiev- Cello concerto in E minor, op.58.wav
Pre-gap length 0:00:02.44
Peak level 59.8 %
Extraction speed 1.0 X
Track quality 99.9 %
Test CRC A1C839CC
Copy CRC A1C839CC
Cannot be verified as accurate (confidence 3) [E5C62D75], AccurateRip returned [9AE0D8F0] (AR v2)
Copy OK
Track 2
Filename D:\Collection\Various Artists\Walevska- Legendary Recordings\02 Prokofiev - Prokofiev- Cello concerto in E minor, op.58.wav
Peak level 68.4 %
Extraction speed 1.5 X
Track quality 100.0 %
Test CRC F0AFF734
Copy CRC F0AFF734
Cannot be verified as accurate (confidence 3) [CB1D3263], AccurateRip returned [B58D7F17] (AR v2)
Copy OK
Track 3
Filename D:\Collection\Various Artists\Walevska- Legendary Recordings\03 Prokofiev - Prokofiev- Cello concerto in E minor, op.58.wav
Peak level 96.1 %
Extraction speed 1.7 X
Track quality 99.9 %
Test CRC 12B8728B
Copy CRC 12B8728B
Cannot be verified as accurate (confidence 3) [D73D9DF5], AccurateRip returned [AAE1EDC0] (AR v2)
Copy OK
Track 4
Filename D:\Collection\Various Artists\Walevska- Legendary Recordings\04 Khatchaturian - Khachaturian- Cello concerto (1946).wav
Pre-gap length 0:00:09.00
Peak level 97.9 %
Extraction speed 2.1 X
Track quality 100.0 %
Test CRC 2D4F2849
Copy CRC 2D4F2849
Cannot be verified as accurate (confidence 3) [F42FCFA7], AccurateRip returned [BC228EE5] (AR v2)
Copy OK
Track 5
Filename D:\Collection\Various Artists\Walevska- Legendary Recordings\05 Khatchaturian - Khachaturian- Cello concerto (1946).wav
Pre-gap length 0:00:03.00
Peak level 88.1 %
Extraction speed 2.2 X
Track quality 100.0 %
Test CRC CF972137
Copy CRC CF972137
Cannot be verified as accurate (confidence 3) [A2DD4B43], AccurateRip returned [F5597BB4] (AR v2)
Copy OK
Track 6
Filename D:\Collection\Various Artists\Walevska- Legendary Recordings\06 Khatchaturian - Khachaturian- Cello concerto (1946).wav
Peak level 100.0 %
Extraction speed 2.2 X
Track quality 99.9 %
Test CRC 2B10765E
Copy CRC 2B10765E
Cannot be verified as accurate (confidence 3) [7760D500], AccurateRip returned [55D29751] (AR v2)
Copy OK
No tracks could be verified as accurate
You may have a different pressing from the one(s) in the database
No errors occurred
End of status report
==== Log checksum 5FC6413794D62BA209ABC408D0BEED7FB148DD72717C21DCD146BAF0221143CC ====
------------------------------------------------------------

CD 4

Exact Audio Copy V1.0 beta 3 from 29. August 2011
EAC extraction logfile from 27. April 2015, 16:26
Christine Walevska / Walevska- Legendary Recordings
Used drive : HL-DT-STBD-RE WH16NS40 Adapter: 2 ID: 0
Read mode : Secure
Utilize accurate stream : Yes
Defeat audio cache : Yes
Make use of C2 pointers : No
Read offset correction : 6
Overread into Lead-In and Lead-Out : No
Fill up missing offset samples with silence : Yes
Delete leading and trailing silent blocks : No
Null samples used in CRC calculations : Yes
Used interface : Native Win32 interface for Win NT & 2000
Gap handling : Appended to previous track
Used output format : User Defined Encoder
Selected bitrate : 1024 kBit/s
Quality : High
Add ID3 tag : No
Command line compressor : C:\Program Files (x86)\Exact Audio Copy\FLAC\FLAC.EXE
Additional command line options : -8 -V -T "ARTIST=%artist%" -T "TITLE=%title%" -T "ALBUM=%albumtitle%" -T "DATE=%year%" -T "TRACKNUMBER=%tracknr%" -T "GENRE=%genre%" -T "PERFORMER=%albuminterpret%" -T "COMPOSER=%composer%" %haslyrics%--tag-from-file=LYRICS="%lyricsfile%"%haslyrics% -T "ALBUMARTIST=%albumartist%" -T "DISCNUMBER=%cdnumber%" -T "TOTALDISCS=%totalcds%" -T "TOTALTRACKS=%numtracks%" -T "COMMENT=%comment%" %source% -o %dest%
TOC of the extracted CD
Track | Start | Length | Start sector | End sector
---------------------------------------------------------
1 | 0:00.00 | 18:15.11 | 0 | 82135
2 | 18:15.11 | 10:28.20 | 82136 | 129255
3 | 28:43.31 | 5:53.67 | 129256 | 155797
4 | 34:37.23 | 1:56.68 | 155798 | 164565
5 | 36:34.16 | 3:09.41 | 164566 | 178781
6 | 39:43.57 | 3:21.73 | 178782 | 193929
7 | 43:05.55 | 5:45.34 | 193930 | 219838
8 | 48:51.14 | 3:40.58 | 219839 | 236396
9 | 52:31.72 | 4:07.37 | 236397 | 254958
Track 1
Filename D:\Collection\Christine Walevska\Walevska- Legendary Recordings\01 Saint-Saлns- Cello concerto No. 1 in A minor, op.33.wav
Pre-gap length 0:00:02.00
Peak level 98.8 %
Extraction speed 1.5 X
Track quality 100.0 %
Test CRC A35594D8
Copy CRC A35594D8
Accurately ripped (confidence 1) [BC77A60F] (AR v2)
Copy OK
Track 2
Filename D:\Collection\Christine Walevska\Walevska- Legendary Recordings\02 Saint-Saлns- Cello concerto No. 2 in D minor, op.119.wav
Pre-gap length 0:00:06.86
Peak level 98.8 %
Extraction speed 1.7 X
Track quality 100.0 %
Test CRC 273A828F
Copy CRC 273A828F
Accurately ripped (confidence 1) [81719411] (AR v2)
Copy OK
Track 3
Filename D:\Collection\Christine Walevska\Walevska- Legendary Recordings\03 Saint-Saлns- Cello concerto No. 2 in D minor, op.119.wav
Pre-gap length 0:00:01.72
Peak level 98.8 %
Extraction speed 1.7 X
Track quality 99.9 %
Test CRC 31861090
Copy CRC 31861090
Accurately ripped (confidence 1) [85CB40E7] (AR v2)
Copy OK
Track 4
Filename D:\Collection\Christine Walevska\Walevska- Legendary Recordings\04 Saint-Saлns- Suite for cello and Orchestra, op.16.wav
Pre-gap length 0:00:08.60
Peak level 39.5 %
Extraction speed 1.6 X
Track quality 100.0 %
Test CRC EA3E6D5D
Copy CRC EA3E6D5D
Accurately ripped (confidence 1) [B12C9A6C] (AR v2)
Copy OK
Track 5
Filename D:\Collection\Christine Walevska\Walevska- Legendary Recordings\05 Saint-Saлns- Suite for cello and Orchestra, op.16.wav
Pre-gap length 0:00:02.76
Peak level 35.1 %
Extraction speed 1.5 X
Track quality 99.9 %
Test CRC B8BF3C82
Copy CRC B8BF3C82
Accurately ripped (confidence 1) [9F542A95] (AR v2)
Copy OK
Track 6
Filename D:\Collection\Christine Walevska\Walevska- Legendary Recordings\06 Saint-Saлns- Suite for cello and Orchestra, op.16.wav
Pre-gap length 0:00:01.48
Peak level 82.4 %
Extraction speed 1.8 X
Track quality 100.0 %
Test CRC 5A8158EA
Copy CRC 5A8158EA
Accurately ripped (confidence 1) [13493B00] (AR v2)
Copy OK
Track 7
Filename D:\Collection\Christine Walevska\Walevska- Legendary Recordings\07 Saint-Saлns- Suite for cello and Orchestra, op.16.wav
Pre-gap length 0:00:01.36
Peak level 77.8 %
Extraction speed 2.1 X
Track quality 100.0 %
Test CRC 8D229B51
Copy CRC 8D229B51
Accurately ripped (confidence 1) [18E98EA2] (AR v2)
Copy OK
Track 8
Filename D:\Collection\Christine Walevska\Walevska- Legendary Recordings\08 Saint-Saлns- Suite for cello and Orchestra, op.16.wav
Peak level 98.8 %
Extraction speed 1.8 X
Track quality 99.9 %
Test CRC 135CCF5B
Copy CRC 135CCF5B
Accurately ripped (confidence 1) [3D418438] (AR v2)
Copy OK
Track 9
Filename D:\Collection\Christine Walevska\Walevska- Legendary Recordings\09 Saint-Saлns- Allegro appassionato, op.43.wav
Pre-gap length 0:00:09.48
Peak level 98.8 %
Extraction speed 2.1 X
Track quality 100.0 %
Test CRC DD9DA171
Copy CRC DD9DA171
Accurately ripped (confidence 1) [2286ABBB] (AR v2)
Copy OK
All tracks accurately ripped
No errors occurred
End of status report
---- CUETools DB Plugin V2.1.3
[CTDB TOCID: CpaneQalxf7iggbx0qDaDXfbN.0-] found, Submit result: CpaneQalxf7iggbx0qDaDXfbN.0- has been confirmed
[01d33a34] (4/4) Accurately ripped
==== Log checksum DD31C892693689AD7164F6ACF54F41BAAB3648DD752A0402FBCD133A604E6677 ====
------------------------------------------------------------

CD 5

Exact Audio Copy V1.0 beta 3 from 29. August 2011
EAC extraction logfile from 27. April 2015, 18:14
Christine Walevska / Walevska- Legendary Recordings
Used drive : HL-DT-STBD-RE WH16NS40 Adapter: 2 ID: 0
Read mode : Secure
Utilize accurate stream : Yes
Defeat audio cache : Yes
Make use of C2 pointers : No
Read offset correction : 6
Overread into Lead-In and Lead-Out : No
Fill up missing offset samples with silence : Yes
Delete leading and trailing silent blocks : No
Null samples used in CRC calculations : Yes
Used interface : Native Win32 interface for Win NT & 2000
Gap handling : Appended to previous track
Used output format : User Defined Encoder
Selected bitrate : 1024 kBit/s
Quality : High
Add ID3 tag : No
Command line compressor : C:\Program Files (x86)\Exact Audio Copy\FLAC\FLAC.EXE
Additional command line options : -8 -V -T "ARTIST=%artist%" -T "TITLE=%title%" -T "ALBUM=%albumtitle%" -T "DATE=%year%" -T "TRACKNUMBER=%tracknr%" -T "GENRE=%genre%" -T "PERFORMER=%albuminterpret%" -T "COMPOSER=%composer%" %haslyrics%--tag-from-file=LYRICS="%lyricsfile%"%haslyrics% -T "ALBUMARTIST=%albumartist%" -T "DISCNUMBER=%cdnumber%" -T "TOTALDISCS=%totalcds%" -T "TOTALTRACKS=%numtracks%" -T "COMMENT=%comment%" %source% -o %dest%
TOC of the extracted CD
Track | Start | Length | Start sector | End sector
---------------------------------------------------------
1 | 0:00.00 | 3:49.11 | 0 | 17185
2 | 3:49.11 | 4:28.21 | 17186 | 37306
3 | 8:17.32 | 3:29.36 | 37307 | 53017
4 | 11:46.68 | 4:27.56 | 53018 | 73098
5 | 16:14.49 | 2:37.01 | 73099 | 84874
6 | 18:51.50 | 3:19.63 | 84875 | 99862
7 | 22:11.38 | 2:54.38 | 99863 | 112950
8 | 25:06.01 | 3:42.05 | 112951 | 129605
9 | 28:48.06 | 3:21.50 | 129606 | 144730
10 | 32:09.56 | 4:31.70 | 144731 | 165125
11 | 36:41.51 | 3:39.13 | 165126 | 181563
12 | 40:20.64 | 4:00.31 | 181564 | 199594
13 | 44:21.20 | 13:30.00 | 199595 | 260344
14 | 57:51.20 | 6:10.00 | 260345 | 288094
15 | 64:01.20 | 5:47.74 | 288095 | 314193
Track 1
Filename D:\Collection\Christine Walevska\Walevska- Legendary Recordings\01 Vivaldi- Cello concerto in G major, RV414.wav
Pre-gap length 0:00:02.00
Peak level 89.2 %
Extraction speed 4.2 X
Track quality 100.0 %
Test CRC AAC4A1A6
Copy CRC AAC4A1A6
Accurately ripped (confidence 1) [441CF1C6] (AR v2)
Copy OK
Track 2
Filename D:\Collection\Christine Walevska\Walevska- Legendary Recordings\02 Vivaldi- Cello concerto in G major, RV414.wav
Pre-gap length 0:00:03.24
Peak level 79.2 %
Extraction speed 1.2 X
Track quality 100.0 %
Test CRC DC5F13C3
Copy CRC DC5F13C3
Accurately ripped (confidence 1) [37455164] (AR v2)
Copy OK
Track 3
Filename D:\Collection\Christine Walevska\Walevska- Legendary Recordings\03 Vivaldi- Cello concerto in G major, RV414.wav
Pre-gap length 0:00:01.96
Peak level 89.8 %
Extraction speed 1.1 X
Track quality 99.9 %
Test CRC 966D5D96
Copy CRC 966D5D96
Accurately ripped (confidence 1) [6324AE7B] (AR v2)
Copy OK
Track 4
Filename D:\Collection\Christine Walevska\Walevska- Legendary Recordings\04 Vivaldi- Cello concerto in A minor, RV418.wav
Pre-gap length 0:00:06.12
Peak level 83.9 %
Extraction speed 1.4 X
Track quality 100.0 %
Test CRC 652E5260
Copy CRC 652E5260
Accurately ripped (confidence 1) [802C2A8F] (AR v2)
Copy OK
Track 5
Filename D:\Collection\Christine Walevska\Walevska- Legendary Recordings\05 Vivaldi- Cello concerto in A minor, RV418.wav
Pre-gap length 0:00:02.24
Peak level 63.3 %
Extraction speed 1.1 X
Track quality 99.9 %
Test CRC 8CFD2AED
Copy CRC 8CFD2AED
Accurately ripped (confidence 1) [9D3E2C55] (AR v2)
Copy OK
Track 6
Filename D:\Collection\Christine Walevska\Walevska- Legendary Recordings\06 Vivaldi- Cello concerto in A minor, RV418.wav
Pre-gap length 0:00:01.56
Peak level 85.7 %
Extraction speed 1.3 X
Track quality 99.9 %
Test CRC A7808C13
Copy CRC A7808C13
Accurately ripped (confidence 1) [097BAF79] (AR v2)
Copy OK
Track 7
Filename D:\Collection\Christine Walevska\Walevska- Legendary Recordings\07 Vivaldi- Cello concerto in G minor, RV417.wav
Pre-gap length 0:00:06.32
Peak level 94.3 %
Extraction speed 1.4 X
Track quality 100.0 %
Test CRC F02F2460
Copy CRC F02F2460
Accurately ripped (confidence 1) [8A8A7815] (AR v2)
Copy OK
Track 8
Filename D:\Collection\Christine Walevska\Walevska- Legendary Recordings\08 Vivaldi- Cello concerto in G minor, RV417.wav
Pre-gap length 0:00:03.44
Peak level 49.4 %
Extraction speed 1.4 X
Track quality 99.9 %
Test CRC B894DA01
Copy CRC B894DA01
Accurately ripped (confidence 1) [48632AED] (AR v2)
Copy OK
Track 9
Filename D:\Collection\Christine Walevska\Walevska- Legendary Recordings\09 Vivaldi- Cello concerto in G minor, RV417.wav
Pre-gap length 0:00:02.68
Peak level 93.6 %
Extraction speed 1.6 X
Track quality 100.0 %
Test CRC B85003C5
Copy CRC B85003C5
Accurately ripped (confidence 1) [3479C14B] (AR v2)
Copy OK
Track 10
Filename D:\Collection\Christine Walevska\Walevska- Legendary Recordings\10 Vivaldi- Cello concerto in A minor, RV420.wav
Pre-gap length 0:00:06.56
Peak level 93.2 %
Extraction speed 1.6 X
Track quality 99.9 %
Test CRC 7F649E91
Copy CRC 7F649E91
Accurately ripped (confidence 1) [03560191] (AR v2)
Copy OK
Track 11
Filename D:\Collection\Christine Walevska\Walevska- Legendary Recordings\11 Vivaldi- Cello concerto in A minor, RV420.wav
Pre-gap length 0:00:04.20
Peak level 67.0 %
Extraction speed 1.8 X
Track quality 100.0 %
Test CRC 51B2242B
Copy CRC 51B2242B
Accurately ripped (confidence 1) [81B3D7F4] (AR v2)
Copy OK
Track 12
Filename D:\Collection\Christine Walevska\Walevska- Legendary Recordings\12 Vivaldi- Cello concerto in A minor, RV420.wav
Pre-gap length 0:00:01.08
Peak level 92.7 %
Extraction speed 1.9 X
Track quality 100.0 %
Test CRC A816EC05
Copy CRC A816EC05
Accurately ripped (confidence 1) [2FACDE54] (AR v2)
Copy OK
Track 13
Filename D:\Collection\Christine Walevska\Walevska- Legendary Recordings\13 Haydn- Cello concerto in D major, Hob.VII b-2.wav
Pre-gap length 0:00:07.10
Peak level 98.6 %
Extraction speed 2.2 X
Track quality 100.0 %
Test CRC 79F4ADA8
Copy CRC 79F4ADA8
Accurately ripped (confidence 1) [D6441C3F] (AR v2)
Copy OK
Track 14
Filename D:\Collection\Christine Walevska\Walevska- Legendary Recordings\14 Haydn- Cello concerto in D major, Hob.VII b-2.wav
Pre-gap length 0:00:03.02
Peak level 69.2 %
Extraction speed 2.3 X
Track quality 100.0 %
Test CRC E3309D52
Copy CRC E3309D52
Accurately ripped (confidence 1) [23CFD2DC] (AR v2)
Copy OK
Track 15
Filename D:\Collection\Christine Walevska\Walevska- Legendary Recordings\15 Haydn- Cello concerto in D major, Hob.VII b-2.wav
Pre-gap length 0:00:02.02
Peak level 95.4 %
Extraction speed 2.3 X
Track quality 100.0 %
Test CRC 40A7B45D
Copy CRC 40A7B45D
Accurately ripped (confidence 1) [92D9DBC4] (AR v2)
Copy OK
All tracks accurately ripped
No errors occurred
End of status report
---- CUETools DB Plugin V2.1.3
[CTDB TOCID: MZ2oJnObyIpJsgE6tc3jK2yyE5I-] found, Submit result: MZ2oJnObyIpJsgE6tc3jK2yyE5I- has been confirmed
[ec689614] (4/4) Accurately ripped
==== Log checksum 3D278D20CD4AFCAAD81BA4E4E11E4F3797265F29C64E386D236CAA21209E2A78 ====
[teatrix.ru].t21039.torrent 
Торрент: Зарегистрирован [ 2016-03-20 00:55 ] · DD2211A539E3292549EC962D84D35A9EC7A420EF

Скачать .torrent

Скачать

35 KB

Статус: проверено
Скачан: 1 раз
Размер: 1.54 GB
terms.php



Быстрый ответ

Имя:

      
Для отправки сообщений необходимо включить JavaScript
Показать сообщения:    

Текущее время: 09-Дек 06:51

Часовой пояс: UTC + 3


Вы можете начинать темы
Вы можете отвечать на сообщения
Вы не можете редактировать свои сообщения
Вы не можете удалять свои сообщения
Вы не можете голосовать в опросах
Вы не можете прикреплять файлы к сообщениям
Вы можете скачивать файлы