(Opera) Gaspare Spontini - Fernando Cortez / Гаспаре Спонтини - Фернан Кортес (Lovro von Matacic; Bruno Prevedi, Angeles Gulin, Ivan Stefanov, Antonio Blancas, Aldo Bottion, Luigi Roni), 1974 -Torino's studio della RAI/1994,FLAC(tracks),lossless


 

[Цитировать]

Gaspare Spontini - Fernando Cortez / Гаспаре Спонтини - Фернан Кортес (Lovro von Matacic; Bruno Prevedi, Ángeles Gulin, Ivan Stefanov, Antonio Blancas, Aldo Bottion, Luigi Roni)
Жанр: Opera
Страна-производитель диска: Италия
Год издания диска: 1994
Издатель (лейбл): Arkadia
Дата записи: 1974
Аудиокодек: FLAC
Тип рипа: tracks
Битрейт аудио: lossless
Продолжительность: 136:47
Источник: релизер (Guillermo)
Исполнители:
Fernand Cortez - Bruno Prevedi,
Amazily - Ángeles Gulin,
Montézuma - Ivan Stefanov,
Télasco - Antonio Blancas,
Alvar - Aldo Bottion,
Morales - Carlo Del Bosco,
Le grand-prêtre - Luigi Roni,
Spanish Prisoner 1 - Marco Vivicio Corda,
Spanish Prisoner 2 - Ubaldo Carosi,
Sailor - Italo D' Amico.
Conductor - Lovro von Matacic,
Orchestra and Chorus of RAI Torino.
Recorded at Torino's studio della RAI, May, 3, 1974.

Треклист

Disc 1:
1. Overture
Act II:
2. O Iberia mia
3. O del funebre Dio
4. O dell'ispano eroe
5. Mira, s'appressa il Re
6. O mio prence
7. Empio ministro d'implacabil Dio
8. O mio fratel
9. O patrio Nume
10. Perduti siam
Act II:
11. Un agguato fatale
12. O di Cortez seguaci
13. Alvaro è in vita ancor
14. Ella morì
Disc 2:
1. Dividi il mio destin
2. Della gloria il riposo
3. O tu, cui cieca sorte
4. O figli al Dio
5. Lasciam l'ingrata riva
6. Io resto
7. Tu a Montezuma
Act III:
8. Ad infiammar nostra audacia
9. O patria mia
10. Ben mertava dime
11. O re de' miei destini
12. Ebben?
13. Brilla un raggio al pensier mio
14. S'incendi l'indifesa reggia
15. O sommo re

Log-fileLog-file CD 1

Exact Audio Copy V1.0 beta 3 from 29. August 2011
EAC extraction logfile from 25. April 2015, 15:30
Artista desconocido / Título desconocido
Used drive : HL-DT-STDVDRAM GH24NSC0 Adapter: 3 ID: 0
Read mode : Secure
Utilize accurate stream : Yes
Defeat audio cache : Yes
Make use of C2 pointers : No
Read offset correction : 6
Overread into Lead-In and Lead-Out : No
Fill up missing offset samples with silence : Yes
Delete leading and trailing silent blocks : No
Null samples used in CRC calculations : Yes
Used interface : Native Win32 interface for Win NT & 2000
Used output format : User Defined Encoder
Selected bitrate : 768 kBit/s
Quality : High
Add ID3 tag : No
Command line compressor : C:\Program Files (x86)\Exact Audio Copy\FLAC\FLAC.EXE
Additional command line options : -8 -V -T "ARTIST=%artist%" -T "TITLE=%title%" -T "ALBUM=%albumtitle%" -T "DATE=%year%" -T "TRACKNUMBER=%tracknr%" -T "GENRE=%genre%" -T "PERFORMER=%albuminterpret%" -T "COMPOSER=%composer%" %haslyrics%--tag-from-file=LYRICS="%lyricsfile%"%haslyrics% -T "ALBUMARTIST=%albumartist%" -T "DISCNUMBER=%cdnumber%" -T "TOTALDISCS=%totalcds%" -T "TOTALTRACKS=%numtracks%" -T "COMMENT=%comment%" %source% -o %dest%
TOC of the extracted CD
Track | Start | Length | Start sector | End sector
---------------------------------------------------------
1 | 0:00.00 | 6:58.17 | 0 | 31366
2 | 6:58.17 | 7:01.35 | 31367 | 62976
3 | 13:59.52 | 3:38.30 | 62977 | 79356
4 | 17:38.07 | 7:02.73 | 79357 | 111079
5 | 24:41.05 | 3:34.50 | 111080 | 127179
6 | 28:15.55 | 4:28.40 | 127180 | 147319
7 | 32:44.20 | 4:22.60 | 147320 | 167029
8 | 37:07.05 | 5:21.52 | 167030 | 191156
9 | 42:28.57 | 2:17.33 | 191157 | 201464
10 | 44:46.15 | 7:09.02 | 201465 | 233641
11 | 51:55.17 | 3:51.48 | 233642 | 251014
12 | 55:46.65 | 4:04.57 | 251015 | 269371
13 | 59:51.47 | 4:11.68 | 269372 | 288264
14 | 64:03.40 | 4:41.40 | 288265 | 309379
Track 1
Filename f:\Users\Guillermo\Desktop\EAC convertidos\01 Pista01.wav
Pre-gap length 0:00:02.00
Peak level 80.9 %
Extraction speed 1.9 X
Track quality 100.0 %
Test CRC 305BDD42
Copy CRC 305BDD42
Copy OK
Track 2
Filename f:\Users\Guillermo\Desktop\EAC convertidos\02 Pista02.wav
Peak level 84.1 %
Extraction speed 2.2 X
Track quality 100.0 %
Test CRC 7E661924
Copy CRC 7E661924
Copy OK
Track 3
Filename f:\Users\Guillermo\Desktop\EAC convertidos\03 Pista03.wav
Peak level 92.2 %
Extraction speed 2.1 X
Track quality 100.0 %
Test CRC F29AEA5A
Copy CRC F29AEA5A
Copy OK
Track 4
Filename f:\Users\Guillermo\Desktop\EAC convertidos\04 Pista04.wav
Peak level 94.2 %
Extraction speed 2.5 X
Track quality 100.0 %
Test CRC 9D658BCC
Copy CRC 9D658BCC
Copy OK
Track 5
Filename f:\Users\Guillermo\Desktop\EAC convertidos\05 Pista05.wav
Peak level 86.6 %
Extraction speed 2.4 X
Track quality 100.0 %
Test CRC 257FCF34
Copy CRC 257FCF34
Copy OK
Track 6
Filename f:\Users\Guillermo\Desktop\EAC convertidos\06 Pista06.wav
Peak level 90.3 %
Extraction speed 2.6 X
Track quality 100.0 %
Test CRC CEC91D29
Copy CRC CEC91D29
Copy OK
Track 7
Filename f:\Users\Guillermo\Desktop\EAC convertidos\07 Pista07.wav
Peak level 92.1 %
Extraction speed 2.8 X
Track quality 100.0 %
Test CRC 198A36B3
Copy CRC 198A36B3
Copy OK
Track 8
Filename f:\Users\Guillermo\Desktop\EAC convertidos\08 Pista08.wav
Peak level 80.8 %
Extraction speed 3.0 X
Track quality 100.0 %
Test CRC 0AE53A61
Copy CRC 0AE53A61
Copy OK
Track 9
Filename f:\Users\Guillermo\Desktop\EAC convertidos\09 Pista09.wav
Peak level 83.0 %
Extraction speed 2.6 X
Track quality 100.0 %
Test CRC 2927B5D2
Copy CRC 2927B5D2
Copy OK
Track 10
Filename f:\Users\Guillermo\Desktop\EAC convertidos\10 Pista10.wav
Peak level 92.2 %
Extraction speed 3.3 X
Track quality 100.0 %
Test CRC 6391047A
Copy CRC 6391047A
Copy OK
Track 11
Filename f:\Users\Guillermo\Desktop\EAC convertidos\11 Pista11.wav
Pre-gap length 0:00:05.66
Peak level 83.3 %
Extraction speed 2.6 X
Track quality 99.9 %
Test CRC 5C67353A
Copy CRC 5C67353A
Copy OK
Track 12
Filename f:\Users\Guillermo\Desktop\EAC convertidos\12 Pista12.wav
Peak level 79.8 %
Extraction speed 3.2 X
Track quality 100.0 %
Test CRC 2BE974F0
Copy CRC 2BE974F0
Copy OK
Track 13
Filename f:\Users\Guillermo\Desktop\EAC convertidos\13 Pista13.wav
Peak level 80.8 %
Extraction speed 3.4 X
Track quality 100.0 %
Test CRC 95045CDD
Copy CRC 95045CDD
Copy OK
Track 14
Filename f:\Users\Guillermo\Desktop\EAC convertidos\14 Pista14.wav
Peak level 73.7 %
Extraction speed 3.5 X
Track quality 100.0 %
Test CRC D4D4A7EE
Copy CRC D4D4A7EE
Copy OK
No errors occurred
End of status report
==== Log checksum 9EFCE0F807B7E6F2407B7660446B3B15D6CB31B3EBB03464A2D8016167C957BD ====

Log-file CD 2

Exact Audio Copy V1.0 beta 3 from 29. August 2011
EAC extraction logfile from 25. April 2015, 16:31
Artista desconocido / Título desconocido
Used drive : HL-DT-STDVDRAM GH24NSC0 Adapter: 3 ID: 0
Read mode : Secure
Utilize accurate stream : Yes
Defeat audio cache : Yes
Make use of C2 pointers : No
Read offset correction : 6
Overread into Lead-In and Lead-Out : No
Fill up missing offset samples with silence : Yes
Delete leading and trailing silent blocks : No
Null samples used in CRC calculations : Yes
Used interface : Native Win32 interface for Win NT & 2000
Used output format : User Defined Encoder
Selected bitrate : 768 kBit/s
Quality : High
Add ID3 tag : No
Command line compressor : C:\Program Files (x86)\Exact Audio Copy\FLAC\FLAC.EXE
Additional command line options : -8 -V -T "ARTIST=%artist%" -T "TITLE=%title%" -T "ALBUM=%albumtitle%" -T "DATE=%year%" -T "TRACKNUMBER=%tracknr%" -T "GENRE=%genre%" -T "PERFORMER=%albuminterpret%" -T "COMPOSER=%composer%" %haslyrics%--tag-from-file=LYRICS="%lyricsfile%"%haslyrics% -T "ALBUMARTIST=%albumartist%" -T "DISCNUMBER=%cdnumber%" -T "TOTALDISCS=%totalcds%" -T "TOTALTRACKS=%numtracks%" -T "COMMENT=%comment%" %source% -o %dest%
TOC of the extracted CD
Track | Start | Length | Start sector | End sector
---------------------------------------------------------
1 | 0:00.00 | 3:40.05 | 0 | 16504
2 | 3:40.05 | 3:36.57 | 16505 | 32761
3 | 7:16.62 | 3:14.13 | 32762 | 47324
4 | 10:31.00 | 4:58.22 | 47325 | 69696
5 | 15:29.22 | 4:37.73 | 69697 | 90544
6 | 20:07.20 | 3:58.12 | 90545 | 108406
7 | 24:05.32 | 6:01.43 | 108407 | 135524
8 | 30:07.00 | 3:30.12 | 135525 | 151286
9 | 33:37.12 | 5:18.73 | 151287 | 175209
10 | 38:56.10 | 4:06.15 | 175210 | 193674
11 | 43:02.25 | 3:20.65 | 193675 | 208739
12 | 46:23.15 | 6:44.50 | 208740 | 239089
13 | 53:07.65 | 5:00.22 | 239090 | 261611
14 | 58:08.12 | 6:04.43 | 261612 | 288954
15 | 64:12.55 | 3:48.20 | 288955 | 306074
Track 1
Filename f:\Users\Guillermo\Desktop\EAC convertidos\01 Pista01.wav
Pre-gap length 0:00:02.00
Peak level 76.7 %
Extraction speed 1.6 X
Track quality 100.0 %
Test CRC FF4FAAB3
Copy CRC FF4FAAB3
Copy OK
Track 2
Filename f:\Users\Guillermo\Desktop\EAC convertidos\02 Pista02.wav
Peak level 84.8 %
Extraction speed 1.8 X
Track quality 100.0 %
Test CRC 98DD3473
Copy CRC 98DD3473
Copy OK
Track 3
Filename f:\Users\Guillermo\Desktop\EAC convertidos\03 Pista03.wav
Peak level 72.6 %
Extraction speed 1.8 X
Track quality 100.0 %
Test CRC 0E8E9440
Copy CRC 0E8E9440
Copy OK
Track 4
Filename f:\Users\Guillermo\Desktop\EAC convertidos\04 Pista04.wav
Peak level 83.5 %
Extraction speed 1.9 X
Track quality 99.9 %
Test CRC 730F0188
Copy CRC 730F0188
Copy OK
Track 5
Filename f:\Users\Guillermo\Desktop\EAC convertidos\05 Pista05.wav
Peak level 79.8 %
Extraction speed 2.3 X
Track quality 100.0 %
Test CRC 2C784759
Copy CRC 2C784759
Copy OK
Track 6
Filename f:\Users\Guillermo\Desktop\EAC convertidos\06 Pista06.wav
Peak level 80.3 %
Extraction speed 2.4 X
Track quality 100.0 %
Test CRC CBC71DBC
Copy CRC CBC71DBC
Copy OK
Track 7
Filename f:\Users\Guillermo\Desktop\EAC convertidos\07 Pista07.wav
Peak level 89.0 %
Extraction speed 2.7 X
Track quality 100.0 %
Test CRC C7697469
Copy CRC C7697469
Copy OK
Track 8
Filename f:\Users\Guillermo\Desktop\EAC convertidos\08 Pista08.wav
Pre-gap length 0:00:04.46
Peak level 86.6 %
Extraction speed 2.6 X
Track quality 100.0 %
Test CRC 1BEDB093
Copy CRC 1BEDB093
Copy OK
Track 9
Filename f:\Users\Guillermo\Desktop\EAC convertidos\09 Pista09.wav
Peak level 77.0 %
Extraction speed 2.5 X
Track quality 99.9 %
Test CRC 30CCB1F6
Copy CRC 30CCB1F6
Copy OK
Track 10
Filename f:\Users\Guillermo\Desktop\EAC convertidos\10 Pista10.wav
Peak level 92.4 %
Extraction speed 2.9 X
Track quality 100.0 %
Test CRC F5BC52C8
Copy CRC F5BC52C8
Copy OK
Track 11
Filename f:\Users\Guillermo\Desktop\EAC convertidos\11 Pista11.wav
Peak level 92.0 %
Extraction speed 2.8 X
Track quality 100.0 %
Test CRC 48EEA461
Copy CRC 48EEA461
Copy OK
Track 12
Filename f:\Users\Guillermo\Desktop\EAC convertidos\12 Pista12.wav
Peak level 94.2 %
Extraction speed 3.3 X
Track quality 100.0 %
Test CRC 46816B7E
Copy CRC 46816B7E
Copy OK
Track 13
Filename f:\Users\Guillermo\Desktop\EAC convertidos\13 Pista13.wav
Peak level 84.4 %
Extraction speed 3.3 X
Track quality 100.0 %
Test CRC EEA096BC
Copy CRC EEA096BC
Copy OK
Track 14
Filename f:\Users\Guillermo\Desktop\EAC convertidos\14 Pista14.wav
Peak level 80.7 %
Extraction speed 3.5 X
Track quality 100.0 %
Test CRC 336C841D
Copy CRC 336C841D
Copy OK
Track 15
Filename f:\Users\Guillermo\Desktop\EAC convertidos\15 Pista15.wav
Peak level 84.8 %
Extraction speed 3.4 X
Track quality 100.0 %
Test CRC BAED0012
Copy CRC BAED0012
Copy OK
No errors occurred
End of status report
==== Log checksum 8704D740A954F57A52F4F8AEA341BEB9ABCAC59EE913E32CCF0950F5BB336C6C ====



Показать сообщения:    

Текущее время: 04-Дек 13:16

Часовой пояс: UTC + 3


Вы не можете начинать темы
Вы не можете отвечать на сообщения
Вы не можете редактировать свои сообщения
Вы не можете удалять свои сообщения
Вы не можете голосовать в опросах
Вы не можете прикреплять файлы к сообщениям
Вы не можете скачивать файлы