(Classical) VA - Capella Edition (Locatelli-op. 4 Nr.1;Marcello-Konzert für Oboe; Geminiani-op. 2 Nr.1; Paisiello- Konzert für Klavier;Cherubini-Sinf.D-Dur)-Italian Masters(Cappella Coloniensis-H-M. Linde,G. Ferro) - 1992, FLAC (tracks+.cue


 

[Цитировать]

Capella Edition - Italian Masters
Жанр: Classical
Страна-производитель диска: Germany
Год издания диска: 1992
Издатель (лейбл): Capriccio
Номер по каталогу: 10628
Дата записи: 1981-1987
Аудиокодек: FLAC
Тип рипа: tracks+.cue
Битрейт аудио: lossless
Продолжительность: 1:12:56.
Источник: собственный рип
Наличие сканов в содержимом раздачи: да
Треклист:
Pietro Antonio Locatelli (1695 - 1764) - Introduttione teatrale D-Dur op. 4 Nr. 1:
01. Allegro [0:01:47.02]
02. Allegro, sempre piano [0:02:22.68]
03. Presto [0:02:11.05]
Alessandro Marcello (1684 - 1750) - Konzert für Oboe, Streicher und Basso continuo d-Moll:
04. Andante e spiccato [0:02:54.50]
05. Adagio [0:03:27.22]
06. Presto [0:03:09.03]
Francesco Geminiani (1687 - 1762) - Concerto grosso c-Moll op. 2 Nr. 1:
07. Andante [0:01:48.55]
08. Allegro [0:02:07.60]
09. Grave-Andante-Prestissimo-Andante [0:01:56.47]
10. Allegro cantabile [0:02:31.63]
Giovanni Paisiello (1740 - 1816) - Konzert für Klavier und Orchester C-Dur:
11. Allegro [0:08:06.05]
12. Larghetto [0:05:35.72]
13. Rondo. Allegro [0:06:00.73]
Luigi Cherubini (1760 - 1842) - Sinfonie D-Dur:
14. Largo-Allegro [0:10:40.17]
15. Larghetto cantabile [0:07:55.48]
16. Minuetto [0:05:20.52]
17. Finale-Allegro [0:04:59.55]
Исполнители:
Cappella Coloniensis - Hans-Martin Linde, Gabriele Ferro;
Helmut Hucke - oboe;
Hiro Kurosaki - violin;
Wolfgang Neininger - violin;
Andreas Gilly - viola;
Zoltan Racz - cello;
Maria-Luisa Tanzini - fortepiano.

Лог создания рипа

Exact Audio Copy V1.0 beta 3 from 29. August 2011
Отчёт EAC об извлечении, выполненном 25. апреля 2015, 14:10
VA / Italienische Meister
Дисковод: ASUS DRW-1814BLT Adapter: 4 ID: 0
Режим чтения : Достоверность
Использование точного потока : Да
Отключение кэша аудио : Да
Использование указателей C2 : Нет
Коррекция смещения при чтении : 6
Способность читать области Lead-in и Lead-out : Нет
Заполнение пропущенных сэмплов тишиной : Да
Удаление блоков с тишиной в начале и конце : Нет
При вычислениях CRC использовались нулевые сэмплы : Да
Интерфейс : Встроенный Win32-интерфейс для Win NT/2000
Обработка зазоров : Добавлено к предыдущему треку
Выходной формат : Пользовательский кодировщик
Выбранный битрейт : 128 kBit/s
Качество : Высокий
Добавление ID3-тега : Нет
Утилита сжатия : C:\Program Files\Exact Audio Copy\Flac\flac.exe
Дополнительные параметры : -V -8 -T "Genre=%genre%" -T "Artist=%artist%" -T "Title=%title%" -T "Album=%albumtitle%" -T "Date=%year%" -T "Tracknumber=%tracknr%" -T "Comment=EAC1.0b2 FLAC -8" %source%
TOC извлечённого CD
Трек | Старт | Длительность | Начальный сектор | Конечный сектор
---------------------------------------------------------------------
1 | 0:00.38 | 1:47.02 | 38 | 8064
2 | 1:47.40 | 2:22.68 | 8065 | 18782
3 | 4:10.33 | 2:11.05 | 18783 | 28612
4 | 6:21.38 | 2:54.50 | 28613 | 41712
5 | 9:16.13 | 3:27.22 | 41713 | 57259
6 | 12:43.35 | 3:09.03 | 57260 | 71437
7 | 15:52.38 | 1:48.55 | 71438 | 79592
8 | 17:41.18 | 2:07.60 | 79593 | 89177
9 | 19:49.03 | 1:56.47 | 89178 | 97924
10 | 21:45.50 | 2:31.63 | 97925 | 109312
11 | 24:17.38 | 8:06.05 | 109313 | 145767
12 | 32:23.43 | 5:35.72 | 145768 | 170964
13 | 37:59.40 | 6:00.73 | 170965 | 198037
14 | 44:00.38 | 10:40.17 | 198038 | 246054
15 | 54:40.55 | 7:55.48 | 246055 | 281727
16 | 62:36.28 | 5:20.52 | 281728 | 305779
17 | 67:57.05 | 4:59.55 | 305780 | 328259
Трек 1
Имя файла R:\Раздача 44\VA - Capella Edition - 1992 - Italian Masters\01 Pietro Antonio Locatelli (1695 - 1764) - Introduttione teatrale D-Dur op. 4 Nr. 1 - Allegro.wav
Длина предзазора 0:00:02.38
Пиковый уровень 59.4 %
Скорость извлечения 4.0 X
Качество трека 100.0 %
CRC теста 0E0BED41
CRC копии 0E0BED41
Точное извлечение (достоверность 2) [21FE30A4] (AR v2)
Копирование... OK
Трек 2
Имя файла R:\Раздача 44\VA - Capella Edition - 1992 - Italian Masters\02 Pietro Antonio Locatelli (1695 - 1764) - Introduttione teatrale D-Dur op. 4 Nr. 1 - Allegro, sempre piano.wav
Пиковый уровень 50.3 %
Скорость извлечения 4.5 X
Качество трека 100.0 %
CRC теста 18C4FAF3
CRC копии 18C4FAF3
Точное извлечение (достоверность 2) [05072095] (AR v2)
Копирование... OK
Трек 3
Имя файла R:\Раздача 44\VA - Capella Edition - 1992 - Italian Masters\03 Pietro Antonio Locatelli (1695 - 1764) - Introduttione teatrale D-Dur op. 4 Nr. 1 - Presto.wav
Пиковый уровень 45.3 %
Скорость извлечения 4.7 X
Качество трека 100.0 %
CRC теста A2C4021C
CRC копии A2C4021C
Точное извлечение (достоверность 2) [EEE474C5] (AR v2)
Копирование... OK
Трек 4
Имя файла R:\Раздача 44\VA - Capella Edition - 1992 - Italian Masters\04 Alessandro Marcello (1684 - 1750) - Konzert für Oboe, Streicher und Basso continuo d-Moll - Andante e spiccato.wav
Длина предзазора 0:00:07.03
Пиковый уровень 37.2 %
Скорость извлечения 5.2 X
Качество трека 100.0 %
CRC теста 9DC9286F
CRC копии 9DC9286F
Точное извлечение (достоверность 2) [D707A68D] (AR v2)
Копирование... OK
Трек 5
Имя файла R:\Раздача 44\VA - Capella Edition - 1992 - Italian Masters\05 Alessandro Marcello (1684 - 1750) - Konzert für Oboe, Streicher und Basso continuo d-Moll - Adagio.wav
Пиковый уровень 20.9 %
Скорость извлечения 5.6 X
Качество трека 100.0 %
CRC теста E49388B1
CRC копии E49388B1
Точное извлечение (достоверность 2) [8710A36B] (AR v2)
Копирование... OK
Трек 6
Имя файла R:\Раздача 44\VA - Capella Edition - 1992 - Italian Masters\06 Alessandro Marcello (1684 - 1750) - Konzert für Oboe, Streicher und Basso continuo d-Moll - Presto.wav
Пиковый уровень 49.0 %
Скорость извлечения 5.9 X
Качество трека 100.0 %
CRC теста 073F00CB
CRC копии 073F00CB
Точное извлечение (достоверность 2) [1777618B] (AR v2)
Копирование... OK
Трек 7
Имя файла R:\Раздача 44\VA - Capella Edition - 1992 - Italian Masters\07 Francesco Geminiani (1687 - 1762) Concerto grosso c-Moll op. 2 Nr. 1 - Andante.wav
Длина предзазора 0:00:07.18
Пиковый уровень 39.1 %
Скорость извлечения 5.4 X
Качество трека 100.0 %
CRC теста B43F5FF4
CRC копии B43F5FF4
Точное извлечение (достоверность 2) [05333623] (AR v2)
Копирование... OK
Трек 8
Имя файла R:\Раздача 44\VA - Capella Edition - 1992 - Italian Masters\08 Francesco Geminiani (1687 - 1762) Concerto grosso c-Moll op. 2 Nr. 1 - Allegro.wav
Пиковый уровень 44.1 %
Скорость извлечения 3.8 X
Качество трека 99.9 %
CRC теста 55C74416
CRC копии 55C74416
Точное извлечение (достоверность 2) [131673ED] (AR v2)
Копирование... OK
Трек 9
Имя файла R:\Раздача 44\VA - Capella Edition - 1992 - Italian Masters\09 Francesco Geminiani (1687 - 1762) Concerto grosso c-Moll op. 2 Nr. 1 -Grave-Andante-Prestissimo-Andante.wav
Пиковый уровень 39.7 %
Скорость извлечения 5.7 X
Качество трека 100.0 %
CRC теста EC2AEC5A
CRC копии EC2AEC5A
Точное извлечение (достоверность 2) [759AE6FA] (AR v2)
Копирование... OK
Трек 10
Имя файла R:\Раздача 44\VA - Capella Edition - 1992 - Italian Masters\10 Francesco Geminiani (1687 - 1762) Concerto grosso c-Moll op. 2 Nr. 1 - Allegro cantabile.wav
Пиковый уровень 28.4 %
Скорость извлечения 6.3 X
Качество трека 100.0 %
CRC теста 36B7271D
CRC копии 36B7271D
Точное извлечение (достоверность 2) [2C259D79] (AR v2)
Копирование... OK
Трек 11
Имя файла R:\Раздача 44\VA - Capella Edition - 1992 - Italian Masters\11 Giovanni Paisiello (1740 - 1816) - Konzert für Klavier und Orchester C-Dur - Allegro.wav
Длина предзазора 0:00:07.10
Пиковый уровень 73.8 %
Скорость извлечения 7.7 X
Качество трека 100.0 %
CRC теста CCF796CA
CRC копии CCF796CA
Точное извлечение (достоверность 2) [A11F388F] (AR v2)
Копирование... OK
Трек 12
Имя файла R:\Раздача 44\VA - Capella Edition - 1992 - Italian Masters\12 Giovanni Paisiello (1740 - 1816) - Konzert für Klavier und Orchester C-Dur - Larghetto.wav
Пиковый уровень 48.7 %
Скорость извлечения 5.9 X
Качество трека 99.9 %
CRC теста 9115A8BD
CRC копии 9115A8BD
Точное извлечение (достоверность 2) [72E3DF11] (AR v2)
Копирование... OK
Трек 13
Имя файла R:\Раздача 44\VA - Capella Edition - 1992 - Italian Masters\13 Giovanni Paisiello (1740 - 1816) - Konzert für Klavier und Orchester C-Dur - Rondo. Allegro.wav
Пиковый уровень 74.4 %
Скорость извлечения 8.4 X
Качество трека 100.0 %
CRC теста 5F060455
CRC копии 5F060455
Точное извлечение (достоверность 2) [88E4C111] (AR v2)
Копирование... OK
Трек 14
Имя файла R:\Раздача 44\VA - Capella Edition - 1992 - Italian Masters\14 Luigi Cherubini (1760 - 1842) - Sinfonie D-Dur - Largo-Allegro.wav
Длина предзазора 0:00:06.55
Пиковый уровень 82.2 %
Скорость извлечения 9.3 X
Качество трека 100.0 %
CRC теста 706B588A
CRC копии 706B588A
Точное извлечение (достоверность 2) [2752424D] (AR v2)
Копирование... OK
Трек 15
Имя файла R:\Раздача 44\VA - Capella Edition - 1992 - Italian Masters\15 Luigi Cherubini (1760 - 1842) - Sinfonie D-Dur - Larghetto cantabile.wav
Пиковый уровень 63.8 %
Скорость извлечения 5.7 X
Качество трека 99.9 %
CRC теста DBE9EA3F
CRC копии DBE9EA3F
Точное извлечение (достоверность 2) [77963D45] (AR v2)
Копирование... OK
Трек 16
Имя файла R:\Раздача 44\VA - Capella Edition - 1992 - Italian Masters\16 Luigi Cherubini (1760 - 1842) - Sinfonie D-Dur - Minuetto.wav
Пиковый уровень 67.9 %
Скорость извлечения 7.1 X
Качество трека 99.9 %
CRC теста 618D4A32
CRC копии 618D4A32
Точное извлечение (достоверность 2) [9DE8DD86] (AR v2)
Копирование... OK
Трек 17
Имя файла R:\Раздача 44\VA - Capella Edition - 1992 - Italian Masters\17 Luigi Cherubini (1760 - 1842) - Sinfonie D-Dur - Finale-Allegro.wav
Пиковый уровень 81.9 %
Скорость извлечения 8.0 X
Качество трека 100.0 %
CRC теста BE7D33A6
CRC копии BE7D33A6
Точное извлечение (достоверность 2) [3ED74820] (AR v2)
Копирование... OK
Все треки извлечены точно
Ошибок не произошло
Конец отчёта
==== Контрольная сумма отчёта 87BFF2C3C3A4C762ECB3B627C8BBC01E3FA6D7D25E75B64009D2CB378762EF76 ====

Содержание индексной карты (.CUE)

REM GENRE Classical
REM DATE 1992
REM DISCID F5111811
REM COMMENT "ExactAudioCopy v1.0b3"
PERFORMER "VA"
TITLE "Italienische Meister"
FILE "01 Pietro Antonio Locatelli (1695 - 1764) - Introduttione teatrale D-Dur op. 4 Nr. 1 - Allegro.wav" WAVE
TRACK 01 AUDIO
TITLE "Pietro Antonio Locatelli (1695 - 1764) - Introduttione teatrale D-Dur op. 4 N..."
PERFORMER "VA"
PREGAP 00:00:38
INDEX 01 00:00:00
FILE "02 Pietro Antonio Locatelli (1695 - 1764) - Introduttione teatrale D-Dur op. 4 Nr. 1 - Allegro, sempre piano.wav" WAVE
TRACK 02 AUDIO
TITLE "Pietro Antonio Locatelli (1695 - 1764) - Introduttione teatrale D-Dur op. 4 N..."
PERFORMER "VA"
INDEX 01 00:00:00
FILE "03 Pietro Antonio Locatelli (1695 - 1764) - Introduttione teatrale D-Dur op. 4 Nr. 1 - Presto.wav" WAVE
TRACK 03 AUDIO
TITLE "Pietro Antonio Locatelli (1695 - 1764) - Introduttione teatrale D-Dur op. 4 N..."
PERFORMER "VA"
INDEX 01 00:00:00
TRACK 04 AUDIO
TITLE "Alessandro Marcello (1684 - 1750) - Konzert fur Oboe, Streicher und Basso con..."
PERFORMER "VA"
INDEX 00 02:04:02
FILE "04 Alessandro Marcello (1684 - 1750) - Konzert fur Oboe, Streicher und Basso continuo d-Moll - Andante e spiccato.wav" WAVE
INDEX 01 00:00:00
FILE "05 Alessandro Marcello (1684 - 1750) - Konzert fur Oboe, Streicher und Basso continuo d-Moll - Adagio.wav" WAVE
TRACK 05 AUDIO
TITLE "Alessandro Marcello (1684 - 1750) - Konzert fur Oboe, Streicher und Basso con..."
PERFORMER "VA"
INDEX 01 00:00:00
FILE "06 Alessandro Marcello (1684 - 1750) - Konzert fur Oboe, Streicher und Basso continuo d-Moll - Presto.wav" WAVE
TRACK 06 AUDIO
TITLE "Alessandro Marcello (1684 - 1750) - Konzert fur Oboe, Streicher und Basso con..."
PERFORMER "VA"
INDEX 01 00:00:00
TRACK 07 AUDIO
TITLE "Francesco Geminiani (1687 - 1762) Concerto grosso c-Moll op. 2 Nr. 1 - Andante"
PERFORMER "VA"
INDEX 00 03:01:60
FILE "07 Francesco Geminiani (1687 - 1762) Concerto grosso c-Moll op. 2 Nr. 1 - Andante.wav" WAVE
INDEX 01 00:00:00
FILE "08 Francesco Geminiani (1687 - 1762) Concerto grosso c-Moll op. 2 Nr. 1 - Allegro.wav" WAVE
TRACK 08 AUDIO
TITLE "Francesco Geminiani (1687 - 1762) Concerto grosso c-Moll op. 2 Nr. 1 - Allegro"
PERFORMER "VA"
INDEX 01 00:00:00
FILE "09 Francesco Geminiani (1687 - 1762) Concerto grosso c-Moll op. 2 Nr. 1 -Grave-Andante-Prestissimo-Andante.wav" WAVE
TRACK 09 AUDIO
TITLE "Francesco Geminiani (1687 - 1762) Concerto grosso c-Moll op. 2 Nr. 1 -Grave-A..."
PERFORMER "VA"
INDEX 01 00:00:00
FILE "10 Francesco Geminiani (1687 - 1762) Concerto grosso c-Moll op. 2 Nr. 1 - Allegro cantabile.wav" WAVE
TRACK 10 AUDIO
TITLE "Francesco Geminiani (1687 - 1762) Concerto grosso c-Moll op. 2 Nr. 1 - Allegr..."
PERFORMER "VA"
INDEX 01 00:00:00
TRACK 11 AUDIO
TITLE "Giovanni Paisiello (1740 - 1816) - Konzert fur Klavier und Orchester C-Dur - ..."
PERFORMER "VA"
INDEX 00 02:24:53
FILE "11 Giovanni Paisiello (1740 - 1816) - Konzert fur Klavier und Orchester C-Dur - Allegro.wav" WAVE
INDEX 01 00:00:00
FILE "12 Giovanni Paisiello (1740 - 1816) - Konzert fur Klavier und Orchester C-Dur - Larghetto.wav" WAVE
TRACK 12 AUDIO
TITLE "Giovanni Paisiello (1740 - 1816) - Konzert fur Klavier und Orchester C-Dur - ..."
PERFORMER "VA"
INDEX 01 00:00:00
FILE "13 Giovanni Paisiello (1740 - 1816) - Konzert fur Klavier und Orchester C-Dur - Rondo. Allegro.wav" WAVE
TRACK 13 AUDIO
TITLE "Giovanni Paisiello (1740 - 1816) - Konzert fur Klavier und Orchester C-Dur - ..."
PERFORMER "VA"
INDEX 01 00:00:00
TRACK 14 AUDIO
TITLE "Luigi Cherubini (1760 - 1842) - Sinfonie D-Dur - Largo-Allegro"
PERFORMER "VA"
INDEX 00 05:54:18
FILE "14 Luigi Cherubini (1760 - 1842) - Sinfonie D-Dur - Largo-Allegro.wav" WAVE
INDEX 01 00:00:00
FILE "15 Luigi Cherubini (1760 - 1842) - Sinfonie D-Dur - Larghetto cantabile.wav" WAVE
TRACK 15 AUDIO
TITLE "Luigi Cherubini (1760 - 1842) - Sinfonie D-Dur - Larghetto cantabile"
PERFORMER "VA"
INDEX 01 00:00:00
FILE "16 Luigi Cherubini (1760 - 1842) - Sinfonie D-Dur - Minuetto.wav" WAVE
TRACK 16 AUDIO
TITLE "Luigi Cherubini (1760 - 1842) - Sinfonie D-Dur - Minuetto"
PERFORMER "VA"
INDEX 01 00:00:00
FILE "17 Luigi Cherubini (1760 - 1842) - Sinfonie D-Dur - Finale-Allegro.wav" WAVE
TRACK 17 AUDIO
TITLE "Luigi Cherubini (1760 - 1842) - Sinfonie D-Dur - Finale-Allegro"
PERFORMER "VA"
INDEX 01 00:00:00



Показать сообщения:    

Текущее время: 05-Дек 17:31

Часовой пояс: UTC + 3


Вы не можете начинать темы
Вы не можете отвечать на сообщения
Вы не можете редактировать свои сообщения
Вы не можете удалять свои сообщения
Вы не можете голосовать в опросах
Вы не можете прикреплять файлы к сообщениям
Вы не можете скачивать файлы