Жан-Поль Бельмондо на съемках Знаменитых любовных историй / Jean-Paul Belmondo dans Les amours celebres (Жан Гюйон / Jean Guillon) [01.01.1960, документальный, кинематограф, IPTVRip-AVC] Original (Fra) + Sub (Rus)


Статистика раздачи [Обновить пиров]
Размер:  16 MB   |    Зарегистрирован:  8 месяцев 22 дня   |    Скачан:  0 раз

Полного источника не было: Никогда

 
   
 
 
 

[Цитировать]

Жан-Поль Бельмондо на съемках "Знаменитых любовных историй"
Jean-Paul Belmondo dans "Les amours célèbres"- Дата/Год выпуска: 01.01.1960
Страна: Франция
Жанр: документальный, кинематограф
Продолжительность: 00:01:21
Перевод: Субтитры
Русские субтитры: естьФормат субтитров: softsub (SRT)
Доп. информация о субтитрах: перевод Алексей Королев, консультант Alec Storm, инициатор Алексей Проскуряков aka Aleks Punk
Оригинальная аудиодорожка: французский
Режиссер: Жан Гюйон / Jean Guillon
Телеканал: ina
Описание: Вопросы Жану-Полю Бельмондо на съемочной площадке фильма "Знаменитые любовные истории" в гримерке студии "Булонь-Бийанкур" задает Клод Ле Гак / Claude Le Gac.
Доп. информация: За предоставленный материал благодарность Aleks Punk.

качество: IPTVRip-AVC
формат: MKV
Видео: AVC (H.264), 640x480 (4:3), 25 fps, ~1500 kbps avg, 0.195 bit/pixel
Аудио: AC3, 2 ch, 48 kHz, ~192.00 kbps avg

Пример субтитров

1
00:00:00,780 --> 00:00:05,500
- Жан-Поль Бельмондо, мы видели вас
во многих так называемых фильмах новой волны,
2
00:00:05,620 --> 00:00:07,500
где вы снимались
в довольно небрежной одежде.
3
00:00:07,660 --> 00:00:10,820
Какие ощущения вы испытываете, когда
снимаетесь в исторических костюмах?
4
00:00:11,980 --> 00:00:16,180
- Ощущения не очень сильные, потому что
я 4 года учился в консерватории
5
00:00:16,700 --> 00:00:21,460
и за эти 4 года я перемерил множество париков
и разных костюмов.
6
00:00:21,580 --> 00:00:26,580
- Вы говорите о годах учебы в консерватории,
о счастливых днях вашей жизни, которые бывают
у всех актеров?
- Да
7
00:00:26,700 --> 00:00:30,900
У меня сохранились воспоминания о них.
- Назовите главные роли, которые вы сыграли
в исторических костюмах в консерватории.
8
00:00:31,060 --> 00:00:38,500
- Я играл в "Плутнях Скапена", я играл в
"Смешных жеманницах", где у меня был точно такой же парик...
9
00:00:39,220 --> 00:00:44,780
Я играл в "Жорж Данден", играл...
где же я играл... в "Дон Сезар де Базан".
10
00:00:45,460 --> 00:00:47,460
Я играл во многих пьесах...
"Сутяги" Расина.
11
00:00:47,580 --> 00:00:51,380
- А есть роли, которые вам нравятся
больше других, или для вас это одно и тоже?
12
00:00:51,460 --> 00:00:55,260
- Нет, мне все нравились, но я питал
небольшую слабость к "Скапену",
13
00:00:55,340 --> 00:00:57,100
я его играл на выпускных экзаменах.
14
00:00:57,820 --> 00:01:01,060
- А какую роль вы играете
в "Знаменитых любовных историях" (1961 г.)?
15
00:01:01,180 --> 00:01:03,220
- Я играю там герцога де Луза.
16
00:01:03,340 --> 00:01:06,860
Это придворный,
влюбленный в мадам де Монако,
17
00:01:06,980 --> 00:01:10,260
но который в то же время
любит многих молодых девушек...
18
00:01:10,380 --> 00:01:15,100
Это "чёрная куртка" своего времени,
он ведет там себя очень плохо...
19
00:01:15,220 --> 00:01:19,100
"Чёрная куртка" времен Людовика XIV.
- Это вас преследует?
- Это меня преследует даже сквозь время.
20
00:01:19,180 --> 00:01:21,220
- Спасибо.

MediaInfo

Общее
Уникальный идентификатор : 177422681883444205244568600873054890888 (0x857A5D96FF3C57F5BE7A0D11C6D9EB88)
Полное имя : H:\My Torrents\[apreder]Jean-Paul_Belmondo_dans_Les_amours_celebres(01.01.1960)IPTVRip.mkv
Формат : Matroska
Версия формата : Version 2
Размер файла : 16,5 Мбайт
Продолжительность : 1 м. 21 с.
Общий поток : 1697 Кбит/сек
Дата кодирования : UTC 2015-04-28 14:21:02
Программа кодирования : mkvmerge v7.8.0 ('River Man') 64bit built on Mar 27 2015 16:31:37
Библиотека кодирования : libebml v1.3.1 + libmatroska v1.4.2
Видео
Идентификатор : 1
Формат : AVC
Формат/Информация : Advanced Video Codec
Профиль формата : High@L4.1
Параметр CABAC формата : Да
Параметр ReFrames формата : 16 кадров
Идентификатор кодека : V_MPEG4/ISO/AVC
Продолжительность : 1 м. 21 с.
Битрейт : 1500 Кбит/сек
Ширина : 640 пикселей
Высота : 480 пикселей
Соотношение сторон : 4:3
Режим частоты кадров : Постоянный
Частота кадров : 25,000 кадров/сек
Цветовое пространство : YUV
Субдискретизация насыщенности : 4:2:0
Битовая глубина : 8 бит
Тип развёртки : Прогрессивная
Бит/(Пиксели*Кадры) : 0.195
Размер потока : 14,3 Мбайт (87%)
Библиотека кодирования : x264 core 146 r2538 121396c
Настройки программы : cabac=1 / ref=16 / deblock=1:-1:-1 / analyse=0x3:0x133 / me=umh / subme=10 / psy=1 / psy_rd=1.00:0.15 / mixed_ref=1 / me_range=24 / chroma_me=1 / trellis=2 / 8x8dct=1 / cqm=0 / deadzone=21,11 / fast_pskip=1 / chroma_qp_offset=-3 / threads=6 / lookahead_threads=1 / sliced_threads=0 / nr=0 / decimate=1 / interlaced=0 / bluray_compat=0 / constrained_intra=0 / bframes=8 / b_pyramid=2 / b_adapt=2 / b_bias=0 / direct=3 / weightb=1 / open_gop=0 / weightp=2 / keyint=250 / keyint_min=25 / scenecut=40 / intra_refresh=0 / rc_lookahead=60 / rc=2pass / mbtree=1 / bitrate=1500 / ratetol=1.0 / qcomp=0.60 / qpmin=0 / qpmax=69 / qpstep=4 / cplxblur=20.0 / qblur=0.5 / vbv_maxrate=62500 / vbv_bufsize=78125 / nal_hrd=none / filler=0 / ip_ratio=1.40 / aq=1:1.00
Default : Да
Forced : Нет
Аудио
Идентификатор : 2
Формат : AC-3
Формат/Информация : Audio Coding 3
Расширение режима : CM (complete main)
Параметр Endianness формата : Big
Идентификатор кодека : A_AC3
Продолжительность : 1 м. 21 с.
Вид битрейта : Постоянный
Битрейт : 192 Кбит/сек
Каналы : 2 канала
Расположение каналов : Front: L R
Частота : 48,0 КГц
Битовая глубина : 16 бит
Метод сжатия : С потерями
Размер потока : 1,87 Мбайт (11%)
Язык : French
Default : Да
Forced : Нет
Текст
Идентификатор : 3
Формат : UTF-8
Идентификатор кодека : S_TEXT/UTF8
Идентификатор кодека/Информация : UTF-8 Plain Text
Язык : Russian
Default : Да
Forced : Нет

Скриншоты

Резервные скриншоты

-[2'245]
[teatrix.ru].t21042.torrent 
Торрент: Зарегистрирован [ 2016-03-20 00:54 ] · 680670C6AB823C4D7895C0053A1169BE7070065F

Скачать .torrent

Скачать

6 KB

Статус: проверено
Скачан: 0 раз
Размер: 16 MB
terms.php



Показать сообщения:    

Текущее время: 11-Дек 09:12

Часовой пояс: UTC + 3


Вы не можете начинать темы
Вы не можете отвечать на сообщения
Вы не можете редактировать свои сообщения
Вы не можете удалять свои сообщения
Вы не можете голосовать в опросах
Вы не можете прикреплять файлы к сообщениям
Вы можете скачивать файлы