(Opera) Verdi - Giovanna D'Arco (Ricciarelli, Labo, Zanasi, Begali, Amore - Chorus & Orchestra del Teatro La Fenice di Venezia, Franci) - 1997, APE (image+.cue) lossless


 

[Цитировать]

Giuseppe Verdi - Giovanna d'Arco
Жанр: Opera
Страна-производитель диска: EU
Год издания диска: 1997
Издатель (лейбл): Mondo Musica
Номер по каталогу: MFOH 10021
Дата записи: 1972
Аудиокодек: APE
Тип рипа: image+.cue
Битрейт аудио: lossless
Продолжительность: 59'04+42'48
Источник: собственный рип
Наличие сканов в содержимом раздачи: да
Треклист:
CD1
1. Obertura
2. PROLOGO.- Qual v'ha speme?
3. PR.- Sotto una quercia parvemi
4. PR.- Gelo, terrore m'invade!
5. PR.- Sempre all'alba ed alla sera
6. PR.- Paventi, Carlo, tu forse?
7. ATTO I.- Ai lari!... Alla Patria!
8. I.- Franco son io
9. I.- Oh fatidica foresta
10. I.- Dunque, oh cruda
CD2
1. ATTO II.- Dal cielo a noi
2. II.- Speme al vecchio
3. II.- Te, Dio, lodiam
4. ATTO III.- Amai, ma un solo istante
5. III.- Ecco! Ella vola
6. III.- Quale più fido amico
7. III.- Un suon funereo
Исполнители:
Giuseppe Verdi - Giovanna d'Arco
Dramma lirico in un prologe e tre atti
Libretto di T. Solero
Giovanna - Katia Ricciarelli
Carlo VII - Flaviano Labò
Giacono - Mario Zanasi
Delil - Ottorino Begali
Talbot - Rosario Amore
Coro e Orchestra del Teatro La Fenice di Venezia
Carlo Franci

Лог создания рипа

CD1

Exact Audio Copy V1.0 beta 3 from 29. August 2011
EAC extraction logfile from 1. September 2014, 23:10
Verdi / Giovanna D'Arco, Franci CD1
Used drive : TS8XDVDSTRANSCEND Adapter: 1 ID: 1
Read mode : Secure
Utilize accurate stream : Yes
Defeat audio cache : Yes
Make use of C2 pointers : No
Read offset correction : 6
Overread into Lead-In and Lead-Out : No
Fill up missing offset samples with silence : Yes
Delete leading and trailing silent blocks : No
Null samples used in CRC calculations : Yes
Used interface : Native Win32 interface for Win NT & 2000
Used output format : Monkey's Audio Lossless Encoder
Selected bitrate : High Lossless Compression
Quality : High
Add ID3 tag : No
Command line compressor : C:\Program Files (x86)\Exact Audio Copy\MAC\MAC.exe
TOC of the extracted CD
Track | Start | Length | Start sector | End sector
---------------------------------------------------------
1 | 0:00.00 | 7:22.43 | 0 | 33192
2 | 7:22.43 | 2:50.40 | 33193 | 45982
3 | 10:13.08 | 9:02.07 | 45983 | 86639
4 | 19:15.15 | 3:09.19 | 86640 | 100833
5 | 22:24.34 | 5:10.73 | 100834 | 124156
6 | 27:35.32 | 7:24.47 | 124157 | 157503
7 | 35:00.04 | 2:03.27 | 157504 | 166755
8 | 37:03.31 | 5:35.34 | 166756 | 191914
9 | 42:38.65 | 5:15.33 | 191915 | 215572
10 | 47:54.23 | 11:08.47 | 215573 | 265719
Range status and errors
Selected range
Filename D:\EAC\Verdi - Giovanna D'Arco, Franci CD1.wav
Peak level 60.9 %
Extraction speed 1.9 X
Range quality 100.0 %
Test CRC 1C20E084
Copy CRC 1C20E084
Copy OK
No errors occurred
AccurateRip summary
Track 1 accurately ripped (confidence 1) [F59AA40D] (AR v2)
Track 2 accurately ripped (confidence 1) [F210DCF6] (AR v2)
Track 3 accurately ripped (confidence 1) [824A82A9] (AR v2)
Track 4 accurately ripped (confidence 1) [486CC738] (AR v2)
Track 5 accurately ripped (confidence 1) [6A018DF4] (AR v2)
Track 6 accurately ripped (confidence 1) [72115ABC] (AR v2)
Track 7 accurately ripped (confidence 1) [E98A3639] (AR v2)
Track 8 accurately ripped (confidence 1) [BACD2055] (AR v2)
Track 9 accurately ripped (confidence 1) [4B19A6D1] (AR v2)
Track 10 accurately ripped (confidence 1) [56E35979] (AR v2)
All tracks accurately ripped
End of status report
---- CUETools DB Plugin V2.1.3
[CTDB TOCID: qin9IJ_sw.GgLjFWOPlnu0gwLvc-] disk not present in database, Submit result: unrecognized or virtual drive
==== Log checksum 56F8FD5139B557CE39ADDF3317949DA3A4198F6046A4D74BE49B72E4F1ACE307 ====

CD2

Exact Audio Copy V1.0 beta 3 from 29. August 2011
EAC extraction logfile from 1. September 2014, 22:54
Verdi / Giovanna D'Arco, Franci CD2
Used drive : TSSTcorpCDDVDW SE-208AB Adapter: 1 ID: 0
Read mode : Secure
Utilize accurate stream : Yes
Defeat audio cache : Yes
Make use of C2 pointers : No
Read offset correction : 6
Overread into Lead-In and Lead-Out : No
Fill up missing offset samples with silence : Yes
Delete leading and trailing silent blocks : No
Null samples used in CRC calculations : Yes
Used interface : Native Win32 interface for Win NT & 2000
Used output format : Monkey's Audio Lossless Encoder
Selected bitrate : High Lossless Compression
Quality : High
Add ID3 tag : No
Command line compressor : C:\Program Files (x86)\Exact Audio Copy\MAC\MAC.exe
TOC of the extracted CD
Track | Start | Length | Start sector | End sector
---------------------------------------------------------
1 | 0:00.00 | 4:23.15 | 0 | 19739
2 | 4:23.15 | 3:43.55 | 19740 | 36519
3 | 8:06.70 | 12:57.35 | 36520 | 94829
4 | 21:04.30 | 8:45.68 | 94830 | 134272
5 | 29:50.23 | 2:34.55 | 134273 | 145877
6 | 32:25.03 | 2:23.16 | 145878 | 156618
7 | 34:48.19 | 7:58.48 | 156619 | 192516
Range status and errors
Selected range
Filename D:\EAC\Verdi - Giovanna D'Arco, Franci CD2.wav
Peak level 54.2 %
Extraction speed 1.7 X
Range quality 100.0 %
Test CRC 0E1407DA
Copy CRC 0E1407DA
Copy OK
No errors occurred
AccurateRip summary
Track 1 accurately ripped (confidence 1) [42575493] (AR v2)
Track 2 accurately ripped (confidence 1) [378707BA] (AR v2)
Track 3 accurately ripped (confidence 1) [84C2DAB9] (AR v2)
Track 4 accurately ripped (confidence 1) [EC941597] (AR v2)
Track 5 accurately ripped (confidence 1) [84218A8C] (AR v2)
Track 6 accurately ripped (confidence 1) [CFDDE331] (AR v2)
Track 7 accurately ripped (confidence 1) [D8F5BC5D] (AR v2)
All tracks accurately ripped
End of status report
---- CUETools DB Plugin V2.1.3
[CTDB TOCID: Z8Odc7NHs89thTpfTVNb5f3HilY-] disk not present in database, Submit result: Z8Odc7NHs89thTpfTVNb5f3HilY- has been uploaded
==== Log checksum 89A172D666D24083C309909A1AC04D520A24BEDE2F50BB6F044E4D5D36089B55 ====

Содержание индексной карты (.CUE)

CD1

REM GENRE Opera
REM DATE 1997
REM DISCID 7D0DD60A
REM COMMENT "ExactAudioCopy v1.0b3"
PERFORMER "Verdi"
TITLE "Giovanna D'Arco, Franci CD1"
FILE "Verdi - Giovanna D'Arco, Franci CD1.ape" WAVE
TRACK 01 AUDIO
TITLE "Obertura"
PERFORMER "Verdi"
INDEX 01 00:00:00
TRACK 02 AUDIO
TITLE "PROLOGO.- Qual v'ha speme? (Coro)"
PERFORMER "Verdi"
INDEX 00 07:20:43
INDEX 01 07:22:43
TRACK 03 AUDIO
TITLE "PR.- Sotto una quercia parvemi (Carlo)"
PERFORMER "Verdi"
INDEX 00 10:11:08
INDEX 01 10:13:08
TRACK 04 AUDIO
TITLE "PR.- Gelo, terrore m'invade! (Giacomo)"
PERFORMER "Verdi"
INDEX 00 19:13:15
INDEX 01 19:15:15
TRACK 05 AUDIO
TITLE "PR.- Sempre all'alba ed alla sera (Giovanna)"
PERFORMER "Verdi"
INDEX 00 22:22:34
INDEX 01 22:24:34
TRACK 06 AUDIO
TITLE "PR.- Paventi, Carlo, tu forse? (Carlo)"
PERFORMER "Verdi"
INDEX 00 27:33:32
INDEX 01 27:35:32
TRACK 07 AUDIO
TITLE "ATTO I.- Ai lari!... Alla Patria! (Coro)"
PERFORMER "Verdi"
INDEX 00 34:58:04
INDEX 01 35:00:04
TRACK 08 AUDIO
TITLE "I.- Franco son io (Giacomo)"
PERFORMER "Verdi"
INDEX 00 37:01:31
INDEX 01 37:03:31
TRACK 09 AUDIO
TITLE "I.- Oh fatidica foresta (Giovanna)"
PERFORMER "Verdi"
INDEX 00 42:36:65
INDEX 01 42:38:65
TRACK 10 AUDIO
TITLE "I.- Dunque, oh cruda (Carlo)"
PERFORMER "Verdi"
INDEX 00 47:52:23
INDEX 01 47:54:23

CD2

REM GENRE Opera
REM DATE 1997
REM DISCID 650A0607
REM COMMENT "ExactAudioCopy v1.0b3"
PERFORMER "Verdi"
TITLE "Giovanna D'Arco, Franci CD2"
FILE "Verdi - Giovanna D'Arco, Franci CD2.ape" WAVE
TRACK 01 AUDIO
TITLE "ATTO II.- Dal cielo a noi (Coro)"
PERFORMER "Verdi"
INDEX 01 00:00:00
TRACK 02 AUDIO
TITLE "II.- Speme al vecchio (Giacomo)"
PERFORMER "Verdi"
INDEX 00 04:21:15
INDEX 01 04:23:15
TRACK 03 AUDIO
TITLE "II.- Te, Dio, lodiam (Coro)"
PERFORMER "Verdi"
INDEX 00 08:04:70
INDEX 01 08:06:70
TRACK 04 AUDIO
TITLE "ATTO III.- Amai, ma un solo istante (Giovanna)"
PERFORMER "Verdi"
INDEX 00 21:02:30
INDEX 01 21:04:30
TRACK 05 AUDIO
TITLE "III.- Ecco! Ella vola (Giacomo)"
PERFORMER "Verdi"
INDEX 00 29:48:23
INDEX 01 29:50:23
TRACK 06 AUDIO
TITLE "III.- Quale più fido amico (Carlo)"
PERFORMER "Verdi"
INDEX 00 32:23:03
INDEX 01 32:25:03
TRACK 07 AUDIO
TITLE "III.- Un suon funereo (Coro)"
PERFORMER "Verdi"
INDEX 00 34:46:19
INDEX 01 34:48:19
Доп. информация:
Giovanna d'Arco (Joan of Arc) is an operatic dramma lirico with a prologue and three acts by Giuseppe Verdi set to an Italian libretto by Temistocle Solera, who had prepared the libretti for both Nabucco and I Lombardi.
It is Verdi's seventh opera.
The work partly reflects the story of Joan of Arc and appears to be loosely based on the play Die Jungfrau von Orleans by Friedrich von Schiller.
After writing the music over the autumn and winter of 1844/45, Verdi's opera had its first performance at Teatro alla Scala in Milan on 15 February 1845.



Показать сообщения:    

Текущее время: 04-Дек 21:23

Часовой пояс: UTC + 3


Вы не можете начинать темы
Вы не можете отвечать на сообщения
Вы не можете редактировать свои сообщения
Вы не можете удалять свои сообщения
Вы не можете голосовать в опросах
Вы не можете прикреплять файлы к сообщениям
Вы не можете скачивать файлы