Янковский (Аркадий Коган) [2014, Документальный, биография, WEBRip]


Статистика раздачи [Обновить пиров]
Размер:  702 MB   |    Зарегистрирован:  8 месяцев 18 дней   |    Скачан:  0 раз

Полного источника не было: Никогда

 
   
 
 
 

[Цитировать]

Янковский
Дата/Год выпуска: 2014
Страна: Россия, Студия 217
Жанр: Документальный, биография
Продолжительность: 01:11:24
Перевод: Не требуется
Режиссер: Аркадий Коган
Описание: Этот фильм не об Олеге Янковском в привычном понимании: не биография великого актера, не обзор ролей. И не острые факты из его личной жизни. Хотя это все в фильме есть: драматичная судьба, неизвестные страницы биографии. Как любой большой актер, он обладал тайной - недоговаривал и в кино, и в жизни. Но главным его даром было даже не лицедейство. Янковский талантливо влюблял в себя людей. На него хотелось смотреть снова и снова: оттого его любили и любят до сих пор.
Доп. информация: принимают участие: Ростислав Янковский, Николай Янковский, Филипп Янковский, Иван Янковский, Марк Захаров, Наина Ельцина, Галина Волчек, Инна Чурикова, Ирина Купченко, Лора Гуэрра, Олег Меньшиков, Татьяна Друбич, Леонид Ярмольник
качество: WEBRip
формат: AVI
Видео: XviD, 1236 Кбит/с, 720x384
Аудио: MP3, 2 ch, 128 Кбит/с

MediaInfo

General
Complete name : F:\Олег Янковский\Yankovski.2014.O.WEB-DLRip.700MB.avi
Format : AVI
Format/Info : Audio Video Interleave
File size : 702 MiB
Duration : 1h 11mn
Overall bit rate : 1 375 Kbps
Movie name : Yankovski.2014.O.WEB-DLRip.700MB.ELEKTRI4KA.uniongang.tv
Director : 3imeMachi9e
Writing application : VirtualDubMod 1.5.10.3 | www.virtualdub-fr.org || (build 2550/release)
Copyright : UNIONGANG&RUSTORRENTS
Video
ID : 0
Format : MPEG-4 Visual
Format profile : Advanced Simple@L5
Format settings, BVOP : 3
Format settings, QPel : No
Format settings, GMC : No warppoints
Format settings, Matrix : Default (H.263)
Codec ID : XVID
Codec ID/Hint : XviD
Duration : 1h 11mn
Bit rate : 1 237 Kbps
Width : 720 pixels
Height : 384 pixels
Display aspect ratio : 1.85:1
Frame rate : 25.000 fps
Color space : YUV
Chroma subsampling : 4:2:0
Bit depth : 8 bits
Scan type : Progressive
Compression mode : Lossy
Bits/(Pixel*Frame) : 0.179
Stream size : 632 MiB (90%)
Writing library : XviD 1.2.1 (UTC 2008-12-04)
Audio
ID : 1
Format : MPEG Audio
Format version : Version 1
Format profile : Layer 3
Mode : Joint stereo
Codec ID : 55
Codec ID/Hint : MP3
Duration : 1h 11mn
Bit rate mode : Constant
Bit rate : 128 Kbps
Channel(s) : 2 channels
Sampling rate : 48.0 KHz
Compression mode : Lossy
Stream size : 65.4 MiB (9%)
Alignment : Aligned on interleaves
Interleave, duration : 40 ms (1.00 video frame)
Interleave, preload duration : 504 ms
Writing library : L3.99r
Encoding settings : -m j -V 4 -q 2 -lowpass 17 -b 128

Скриншоты

[teatrix.ru].t21044.torrent 
Торрент: Зарегистрирован [ 2016-03-20 00:54 ] · C32E6463D685F2417DB6C8B90125D88F5CAE31FA

Скачать .torrent

Скачать

1 KB

Статус: проверено
Скачан: 0 раз
Размер: 702 MB
terms.php



Быстрый ответ

Имя:

      
Для отправки сообщений необходимо включить JavaScript
Показать сообщения:    

Текущее время: 07-Дек 11:40

Часовой пояс: UTC + 3


Вы можете начинать темы
Вы можете отвечать на сообщения
Вы не можете редактировать свои сообщения
Вы не можете удалять свои сообщения
Вы не можете голосовать в опросах
Вы не можете прикреплять файлы к сообщениям
Вы можете скачивать файлы