Супергерои: Бесконечная битва / Superheroes: A Never-Ending Battle (Майкл Кантор / Michael Kantor) (1 сезон. 3 эпизода из 3) [2013, документальный, комиксы, кинематограф, DVB] DVO (24ДОК)


Статистика раздачи [Обновить пиров]
Размер:  3.23 GB   |    Зарегистрирован:  8 месяцев 19 дней   |    Скачан:  0 раз

Полного источника не было: Никогда

 
   
 
 
 

[Цитировать]

Супергерои: Бесконечная битва
Superheroes: A Never-Ending Battle- Дата/Год выпуска: 2013
Страна: США
Жанр: документальный, комиксы, кинематограф
Продолжительность: 02:43:03
Перевод: Профессиональный (двухголосый закадровый)
Доп. инфо о переводе: 24ДОК
Русские субтитры: нет
Режиссер: Майкл Кантор / Michael Kantor
Телеканал: 24ДОКОписание: Супергерои – это американские боги, американская мифология. У греков были свои герои, у римлян свои, а это американские герои. Супергерои – это персонификация тех, кем мы хотели бы стать – первопроходцами и героями. Видеоигры, телевидение, анимация, кино – без комиксов их бы не было. Это американская черта, это как джаз – американское искусство. (из предисловия к фильму)
Доп. информация: DVB-S. 3-х-серийный фильм.

качество: DVB
формат: MKV
Видео: MPEG Video 2, 720x576@768x576 (4:3), 25 fps, ~2493 kbps avg, 0.240 bit/pixel
Аудио: MPEG Audio 2, 2 ch, 48 kHz, ~192.00 kbps avg

Список выпусков/серий

01. Правда, справедливость и американский путь / Truth, Justice and the American Way
02. Великая сила – великая ответственность / Great Power, Great Responsibility
03. Героем может стать любой / A Hero Can Be Anyone

MediaInfo

Общее
Уникальный идентификатор : 201554255201675453955136825118669014710 (0x97A1F0035A472AA2895312F840CA06B6)
Полное имя : E:\My Torrents 2\[apreder]Superheroes_A_Never-Ending_Battle(2013)DVB\01. Truth, Justice and the American Way.mkv
Формат : Matroska
Версия формата : Version 2
Размер файла : 1,04 Гбайт
Продолжительность : 54 м.
Режим общего битрейта : Переменный
Общий поток : 2740 Кбит/сек
Дата кодирования : UTC 2015-04-28 14:58:01
Программа кодирования : mkvmerge v7.8.0 ('River Man') 64bit built on Mar 27 2015 16:31:37
Библиотека кодирования : libebml v1.3.1 + libmatroska v1.4.2
Видео
Идентификатор : 1
Формат : MPEG Video
Версия формата : Version 2
Профиль формата : Main@Main
Параметр BVOP формата : Да
Параметр матрицы формата : Выборочная
Параметр GOP формата : Variable
Format_Settings_PictureStructure : Frame
Идентификатор кодека : V_MPEG2
Идентификатор кодека/Информация : MPEG 1 or 2 Video
Продолжительность : 54 м.
Вид битрейта : Переменный
Битрейт : 2493 Кбит/сек
Ширина : 720 пикселей
Высота : 576 пикселей
Соотношение сторон : 4:3
Режим частоты кадров : Постоянный
Частота кадров : 25,000 кадров/сек
Стандарт вещания : PAL
Цветовое пространство : YUV
Субдискретизация насыщенности : 4:2:0
Битовая глубина : 8 бит
Тип развёртки : Чересстрочная
Порядок развёртки : Верхнее поле первое
Метод сжатия : С потерями
Бит/(Пиксели*Кадры) : 0.240
Временной код первого кадра : 00:00:00:00
Оригинал временного кода : Group of pictures header
Размер потока : 971 Мбайт (91%)
Default : Да
Forced : Нет
Аудио
Идентификатор : 2
Формат : MPEG Audio
Версия формата : Version 1
Профиль формата : Layer 2
Идентификатор кодека : A_MPEG/L2
Идентификатор кодека/Подсказка : MP2
Продолжительность : 54 м.
Вид битрейта : Постоянный
Битрейт : 192 Кбит/сек
Каналы : 2 канала
Частота : 48,0 КГц
Метод сжатия : С потерями
Размер потока : 74,8 Мбайт (7%)
Язык : Russian
Default : Да
Forced : Нет

Скриншоты


Резервные скриншоты


-[2'246]
[teatrix.ru].t21045.torrent 
Торрент: Зарегистрирован [ 2016-03-20 00:54 ] · 60E53DADCC3825116958AF9C805B6641D3CEB429

Скачать .torrent

Скачать

17 KB

Статус: проверено
Скачан: 0 раз
Размер: 3.23 GB
terms.php



Показать сообщения:    

Текущее время: 08-Дек 10:58

Часовой пояс: UTC + 3


Вы не можете начинать темы
Вы не можете отвечать на сообщения
Вы не можете редактировать свои сообщения
Вы не можете удалять свои сообщения
Вы не можете голосовать в опросах
Вы не можете прикреплять файлы к сообщениям
Вы можете скачивать файлы