[TR24][SM][OF] Nigunim : Hebrew Melodies (Bloch, Zeitlin, Achron, Bonime, Williams, Dorman) - Gil Shaham & Orli Shaham - 2013 (Classical)


Статистика раздачи [Обновить пиров]
Размер:  619 MB   |    Зарегистрирован:  8 месяцев 18 дней   |    Скачан:  0 раз

Полного источника не было: Никогда

 
   
 
 
 

[Цитировать]

·
·
nigunim
hebrew melodies
Жанр: Chamber Music
Носитель: Official Digital Download
Год издания диска: 2013
Издатель(лейбл): © Canary Classics
Номер по каталогу: CC10
Продолжительность: 01:07:04
Наличие сканов в содержимом раздачи: cover & booklet
Контейнер: FLAC (*.flac)
Разрядность: 24/44,1
Количество каналов: 2.0
Формат: tracks
Источник: qobuz.com
Pелизер: WEB (thanks to the original customer)
Gil Shaham violin
Orli Shaham piano

Треклист

Josef Bonime (1891-1959)
1. Danse h bra que 2:52
Joseph Achron (1886-1943)
2. Hebrew Melody Op.33 5:33
Avner Dorman (b.1975)
3. - 6. Nigunim* (Violin Sonata No.3) 19:47
Joseph Achron (1886-1943)
7. - 8. Two Hebrew Pieces Op.35 8:18
John Williams (b.1932)
9. - 11. Three Pieces from Schindler’s List 12:29
Leo Zeitlin (1884-1930)
trans. Joseph Achron
12. Eli Zion 5:08
Ernest Bloch (1880-1959)
13. - 15. Baal Shem 13:00
*World Premiere Recording

Dynamic Range Meter

foobar2000 1.2.6 / Dynamic Range Meter 1.1.1
log date: 2015-04-28 21:33:36
--------------------------------------------------------------------------------
Analyzed: Gil Shaham, Orli Shaham / Nigunim, Hebrew Melodies
--------------------------------------------------------------------------------
DR Peak RMS Duration Track
--------------------------------------------------------------------------------
DR14 -3.62 dB -22.36 dB 2:50 01-Danse hebraique
DR15 -0.15 dB -25.64 dB 5:31 02-Hebrew Melody, Op. 33 (version for violin and piano)
DR14 -2.89 dB -24.68 dB 5:32 03-Violin Sonata No. 3, "Nigunim": I. Adagio religioso
DR14 -0.99 dB -20.91 dB 3:40 04-Violin Sonata No. 3, "Nigunim": II. Scherzo
DR14 -5.76 dB -27.41 dB 6:42 05-Violin Sonata No. 3, "Nigunim": III. Adagio
DR14 -0.54 dB -19.05 dB 3:54 06-Violin Sonata No. 3, "Nigunim": IV. Presto
DR12 -6.14 dB -26.65 dB 2:37 07-2 Hebrew Pieces, Op. 35 (arr. for violin and piano): No. 2. Lullaby
DR15 0.00 dB -20.58 dB 5:41 08-2 Hebrew Pieces, Op. 35 (arr. for violin and piano): No. 1. Dance
DR12 -5.40 dB -24.89 dB 3:29 09-Schindler's List (arr. for violin and piano): Theme: Slowly
DR12 -7.19 dB -24.26 dB 4:12 10-Schindler's List (arr. for violin and piano): Jewish Town (Krakow Ghetto, Winter '41): Andante
DR13 -5.48 dB -23.93 dB 4:49 11-Schindler's List (arr. for violin and piano): Remembrances: Moderato
DR14 -3.96 dB -23.54 dB 5:04 12-Eli Zion (arr. J. Achron)
DR14 -4.58 dB -25.63 dB 3:09 13-Baal shem (version for violin and piano): I. Vidui (Contrition): Un poco lento
DR13 -2.48 dB -20.04 dB 6:06 14-Baal shem (version for violin and piano): II. Nigun (Improvisation): Adagio non troppo
DR13 -1.84 dB -19.91 dB 3:53 15-Baal shem (version for violin and piano): III. Simchas Torah (Rejoicing): Allegro giocoso
--------------------------------------------------------------------------------
Number of tracks: 15
Official DR value: DR14
Samplerate: 44100 Hz
Channels: 2
Bits per sample: 24
Bitrate: 1441 kbps
Codec: FLAC
================================================================================
[teatrix.ru].t21046.torrent 
Торрент: Зарегистрирован [ 2016-03-20 00:54 ] · 0AE7C95CE358FABBBAD7C075292F68B54630105C

Скачать .torrent

Скачать

14 KB

Статус: проверено
Скачан: 0 раз
Размер: 619 MB
terms.php



Быстрый ответ

Имя:

      
Для отправки сообщений необходимо включить JavaScript
Показать сообщения:    

Текущее время: 07-Дек 11:38

Часовой пояс: UTC + 3


Вы можете начинать темы
Вы можете отвечать на сообщения
Вы не можете редактировать свои сообщения
Вы не можете удалять свои сообщения
Вы не можете голосовать в опросах
Вы не можете прикреплять файлы к сообщениям
Вы можете скачивать файлы