(Classical) Joonas Kokkonen - Inauguratio; Symphony No.2; Erekhtheion; Interludes from the opera 'The Last Temptations' - Vihavainen, Gronroos, Akateeminen Laulu,Lahti Symphony Orchestra, Osmo Vänskä (Vanska) - 1991, FLAC (image+.cue) lossl


 

[Цитировать]

Joonas Kokkonen - Inauguratio; Symphony No.2; Erekhtheion; Interludes from the opera 'The Last Temptations' - Vihavainen, Grönroos, Akateeminen Laulu,Lahti Symphony Orchestra, Osmo Vänskä
Жанр: Classical
Страна-производитель диска: Sweden
Год издания диска: 1991
Издатель (лейбл): BIS
Номер по каталогу: BIS-CD-498
Дата записи: 1990,1991
Аудиокодек: FLAC
Тип рипа: image+.cue
Битрейт аудио: lossless
Продолжительность: 63:44
Источник: собственный рип
Наличие сканов в содержимом раздачи: да
Треклист:
Joonas Kokkonen
(1921-1996)
[1] Inauguratio (1971)
[2]-[5] Symphony No.2 (1960/61)
[6]-[9] Interludes from the opera 'The Last Temptations' (1970)
[10]-[13] Erekhtheion, cantata (1969)
Исполнители:
Satu Vihavainen soprano
Walton Grönroos baritone
Akateeminen Laulu (Academic Choral Society)
Lahti Symphony Orchestra
Osmo Vänskä
conductor

Лог создания рипа

Exact Audio Copy V1.0 beta 3 from 29. August 2011
EAC extraction logfile from 12. December 2014, 22:43
Lahti Symphony Orchestra, Osmo Vanska / Kokkonen - Inauguratio; Symphony No.2; Erekhtheion
Used drive : HL-DT-STDVDRAM GU70N Adapter: 0 ID: 0
Read mode : Secure
Utilize accurate stream : Yes
Defeat audio cache : Yes
Make use of C2 pointers : No
Read offset correction : 48
Overread into Lead-In and Lead-Out : No
Fill up missing offset samples with silence : Yes
Delete leading and trailing silent blocks : No
Null samples used in CRC calculations : Yes
Used interface : Native Win32 interface for Win NT & 2000
Used output format : User Defined Encoder
Selected bitrate : 128 kBit/s
Quality : High
Add ID3 tag : No
Command line compressor : C:\Program Files (x86)\Exact Audio Copy\Flac\flac.exe
Additional command line options : -V -8 -T "Date=%year%" -T "Genre=%genre%" %source%
TOC of the extracted CD
Track | Start | Length | Start sector | End sector
---------------------------------------------------------
1 | 0:00.00 | 8:39.00 | 0 | 38924
2 | 8:39.00 | 7:06.00 | 38925 | 70874
3 | 15:45.00 | 4:22.00 | 70875 | 90524
4 | 20:07.00 | 7:23.37 | 90525 | 123786
5 | 27:30.37 | 3:09.38 | 123787 | 137999
6 | 30:40.00 | 3:07.60 | 138000 | 152084
7 | 33:47.60 | 2:47.15 | 152085 | 164624
8 | 36:35.00 | 4:52.70 | 164625 | 186594
9 | 41:27.70 | 5:46.05 | 186595 | 212549
10 | 47:14.00 | 4:30.00 | 212550 | 232799
11 | 51:44.00 | 4:24.00 | 232800 | 252599
12 | 56:08.00 | 3:45.00 | 252600 | 269474
13 | 59:53.00 | 3:47.00 | 269475 | 286499
Range status and errors
Selected range
Filename C:\temp\BIS-CD-0498 - Kokkonen - Inauguratio; Symphony No.2; Erekhtheion\Kokkonen - Inauguratio; Symphony No.2; Erekhtheion.wav
Peak level 98.8 %
Extraction speed 2.1 X
Range quality 99.9 %
Test CRC BA526DEF
Copy CRC BA526DEF
Copy OK
No errors occurred
AccurateRip summary
Track 1 accurately ripped (confidence 1) [6C77EF3C] (AR v1)
Track 2 accurately ripped (confidence 1) [34EE5A24] (AR v1)
Track 3 accurately ripped (confidence 1) [320D85AF] (AR v1)
Track 4 accurately ripped (confidence 1) [DFC01A48] (AR v1)
Track 5 accurately ripped (confidence 1) [BE701DB6] (AR v1)
Track 6 accurately ripped (confidence 1) [19A5D2F3] (AR v1)
Track 7 accurately ripped (confidence 1) [599DC74D] (AR v1)
Track 8 accurately ripped (confidence 1) [104C9447] (AR v1)
Track 9 accurately ripped (confidence 1) [FEAED6ED] (AR v1)
Track 10 accurately ripped (confidence 1) [DC64AF03] (AR v1)
Track 11 accurately ripped (confidence 1) [5ED7C153] (AR v1)
Track 12 accurately ripped (confidence 1) [60914F79] (AR v1)
Track 13 accurately ripped (confidence 1) [A3A3072B] (AR v1)
All tracks accurately ripped
End of status report
==== Log checksum 1CECDB4B42BA60BF71100E8719ED3212846C079D4A540AFFB0ECCF7972D90422 ====



Показать сообщения:    

Текущее время: 10-Дек 21:31

Часовой пояс: UTC + 3


Вы не можете начинать темы
Вы не можете отвечать на сообщения
Вы не можете редактировать свои сообщения
Вы не можете удалять свои сообщения
Вы не можете голосовать в опросах
Вы не можете прикреплять файлы к сообщениям
Вы не можете скачивать файлы