Супергерои. Бесконечная битва / Superheroes: A Never-Ending Battle (Майкл Кэнтор / Michael Kantor) (1 сезон. 3 эпизода из 3) [2013, документальный, история, политика, IPTVRip]


Статистика раздачи [Обновить пиров]
Размер:  2.34 GB   |    Зарегистрирован:  8 месяцев 22 дня   |    Скачан:  0 раз

Полного источника не было: Никогда

 
   
 
 
 

[Цитировать]

Супергерои. Бесконечная битва (1 сезон. 3 эпизода из 3) / Superheroes: A Never-Ending Battle
Дата/Год выпуска: 2013
Страна: США, Ghost Light Films, National Endowment for the
Жанр: документальный, кинематограф
Продолжительность: 3х~00:54:09
Перевод: Профессиональный (двухголосый закадровый)
Русские субтитры: нет
Оригинальная аудиодорожка: нет
Режиссер: Майкл Кэнтор / Michael Kantor
Телеканал: 24 Doc
Описание: Супергерои развлекали и вдохновляли аудиторию с тех самых пор, как 75 лет назад на страницах комиксов появился Супермен. Сериал исследует природу и эволюцию супергероев, которые шагнули со страниц комиксов на киноэкраны и стали основой огромной индустрии, захватившей весь мир. Успех "Человек из стали", "Темного рыцаря" и "Мстителей" подтверждает рост популярности этих легендарных героев.
Доп. информация: Раздача производится папкой. В папке 3 (три) видеофайла
Сэмпл: http://multi-up.com/1046030
качество: IPTVRip
формат: AVI
Видео: 720x400 (1.80:1), 25 fps, XviD MPEG-4 ~1864 kbps avg, 0.26 bit/pixel
Аудио: 48 kHz, AC3 Dolby Digital, 2/0 (L,R) Surround Encoded ch, ~192 kbps

Список выпусков/серий

Эпизод 1: Правда, справедливость и американский путь
Эпизод 2: Великая сила, великая ответственность
Эпизод 3: Героем может стать любой

MediaInfo

Общее
Полное имя : W:\Pshichko66\Na zapis'\Документальные фильмы\Supergeroi. Beskonechnaja bitva\1 chast'.avi
Формат : AVI
Формат/Информация : Audio Video Interleave
Размер файла : 801 Мбайт
Продолжительность : 54 м.
Общий поток : 2055 Кбит/сек
Программа кодирования : VirtualDubMod 1.5.10.2 (build 2540/release)
Библиотека кодирования : VirtualDubMod build 2540/release
Видео
Идентификатор : 0
Формат : MPEG-4 Visual
Профиль формата : Advanced Simple@L5
Параметр BVOP формата : 2
Параметр QPel формата : Нет
Параметр GMC формата : Без точки перехода
Параметр матрицы формата : Выборочная
Идентификатор кодека : XVID
Идентификатор кодека/Подсказка : XviD
Продолжительность : 54 м.
Битрейт : 1853 Кбит/сек
Ширина : 720 пикселей
Высота : 400 пикселей
Соотношение сторон : 16:9
Частота кадров : 25,000 кадров/сек
Цветовое пространство : YUV
Субдискретизация насыщенности : 4:2:0
Битовая глубина : 8 бит
Тип развёртки : Прогрессивная
Метод сжатия : С потерями
Бит/(Пиксели*Кадры) : 0.257
Размер потока : 722 Мбайт (90%)
Библиотека кодирования : XviD 73
Аудио
Идентификатор : 1
Формат : AC-3
Формат/Информация : Audio Coding 3
Профиль формата : Dolby Digital
Расширение режима : CM (complete main)
Параметр Endianness формата : Big
Идентификатор кодека : 2000
Продолжительность : 54 м.
Вид битрейта : Постоянный
Битрейт : 192 Кбит/сек
Каналы : 2 канала
Расположение каналов : Front: L R
Частота : 48,0 КГц
Битовая глубина : 16 бит
Метод сжатия : С потерями
Размер потока : 74,8 Мбайт (9%)
Выравнивание : Разделение по промежуткам
Продолжительность промежутка : 40 мс. (1,00 видеокадр)
Время предзагрузки промежутка : 500 мс.
Общее
Полное имя : W:\Pshichko66\Na zapis'\Документальные фильмы\Supergeroi. Beskonechnaja bitva\2 chast'.avi
Формат : AVI
Формат/Информация : Audio Video Interleave
Размер файла : 800 Мбайт
Продолжительность : 54 м.
Общий поток : 2066 Кбит/сек
Программа кодирования : VirtualDubMod 1.5.10.2 (build 2540/release)
Библиотека кодирования : VirtualDubMod build 2540/release
Видео
Идентификатор : 0
Формат : MPEG-4 Visual
Профиль формата : Advanced Simple@L5
Параметр BVOP формата : 2
Параметр QPel формата : Нет
Параметр GMC формата : Без точки перехода
Параметр матрицы формата : Выборочная
Идентификатор кодека : XVID
Идентификатор кодека/Подсказка : XviD
Продолжительность : 54 м.
Битрейт : 1864 Кбит/сек
Ширина : 720 пикселей
Высота : 400 пикселей
Соотношение сторон : 16:9
Частота кадров : 25,000 кадров/сек
Цветовое пространство : YUV
Субдискретизация насыщенности : 4:2:0
Битовая глубина : 8 бит
Тип развёртки : Прогрессивная
Метод сжатия : С потерями
Бит/(Пиксели*Кадры) : 0.259
Размер потока : 722 Мбайт (90%)
Библиотека кодирования : XviD 73
Аудио
Идентификатор : 1
Формат : AC-3
Формат/Информация : Audio Coding 3
Профиль формата : Dolby Digital
Расширение режима : CM (complete main)
Параметр Endianness формата : Big
Идентификатор кодека : 2000
Продолжительность : 54 м.
Вид битрейта : Постоянный
Битрейт : 192 Кбит/сек
Каналы : 2 канала
Расположение каналов : Front: L R
Частота : 48,0 КГц
Битовая глубина : 16 бит
Метод сжатия : С потерями
Размер потока : 74,4 Мбайт (9%)
Выравнивание : Разделение по промежуткам
Продолжительность промежутка : 40 мс. (1,00 видеокадр)
Время предзагрузки промежутка : 500 мс.
Общее
Полное имя : W:\Pshichko66\Na zapis'\Документальные фильмы\Supergeroi. Beskonechnaja bitva\3 chast'.avi
Формат : AVI
Формат/Информация : Audio Video Interleave
Размер файла : 800 Мбайт
Продолжительность : 54 м.
Общий поток : 2052 Кбит/сек
Программа кодирования : VirtualDubMod 1.5.10.2 (build 2540/release)
Библиотека кодирования : VirtualDubMod build 2540/release
Видео
Идентификатор : 0
Формат : MPEG-4 Visual
Профиль формата : Advanced Simple@L5
Параметр BVOP формата : 2
Параметр QPel формата : Нет
Параметр GMC формата : Без точки перехода
Параметр матрицы формата : Выборочная
Идентификатор кодека : XVID
Идентификатор кодека/Подсказка : XviD
Продолжительность : 54 м.
Битрейт : 1851 Кбит/сек
Ширина : 720 пикселей
Высота : 400 пикселей
Соотношение сторон : 16:9
Частота кадров : 25,000 кадров/сек
Цветовое пространство : YUV
Субдискретизация насыщенности : 4:2:0
Битовая глубина : 8 бит
Тип развёртки : Прогрессивная
Метод сжатия : С потерями
Бит/(Пиксели*Кадры) : 0.257
Размер потока : 721 Мбайт (90%)
Библиотека кодирования : XviD 73
Аудио
Идентификатор : 1
Формат : AC-3
Формат/Информация : Audio Coding 3
Профиль формата : Dolby Digital
Расширение режима : CM (complete main)
Параметр Endianness формата : Big
Идентификатор кодека : 2000
Продолжительность : 54 м.
Вид битрейта : Постоянный
Битрейт : 192 Кбит/сек
Каналы : 2 канала
Расположение каналов : Front: L R
Частота : 48,0 КГц
Битовая глубина : 16 бит
Метод сжатия : С потерями
Размер потока : 74,8 Мбайт (9%)
Выравнивание : Разделение по промежуткам
Продолжительность промежутка : 40 мс. (1,00 видеокадр)
Время предзагрузки промежутка : 500 мс.
[teatrix.ru].t21049.torrent 
Торрент: Зарегистрирован [ 2016-03-20 00:54 ] · DA0FE5F8B36328B03FCC4BB70A0C96F95EA02F58

Скачать .torrent

Скачать

12 KB

Статус: проверено
Скачан: 0 раз
Размер: 2.34 GB
terms.php



Показать сообщения:    

Текущее время: 11-Дек 09:04

Часовой пояс: UTC + 3


Вы не можете начинать темы
Вы не можете отвечать на сообщения
Вы не можете редактировать свои сообщения
Вы не можете удалять свои сообщения
Вы не можете голосовать в опросах
Вы не можете прикреплять файлы к сообщениям
Вы можете скачивать файлы