(Classical) [LP] [24/96] Rene Bartoli - Guitar 1 (Mono) - 1966, FLAC (tracks+.cue)


Статистика раздачи [Обновить пиров]
Размер:  342 MB   |    Зарегистрирован:  8 месяцев 16 дней   |    Скачан:  0 раз

Полного источника не было: Никогда

 
   
 
 
 

[Цитировать]

Rene Bartoli - Guitar 1 (Mono)
Жанр: Classical
Носитель: LP
Год выпуска: 1966
Лейбл: Balkanton
Страна-производитель: Bulgaria
Аудио кодек: FLAC
Тип рипа: tracks+.cue
Формат записи: 32/192
Формат раздачи: 24/96
Продолжительность: 38.27 min
Треклист:
01. Prelude
02. Sarabande
03. Gavotte
04. Etude
05. Menuet № 1
06. Menuet № 2
07. Recuerdos De
08. La Alhambra
09. Adelita
10. Lagrima
11. Asturias
12. Prelude № 1
Источник оцифровки: автором раздачи
Код класса состояния винила: NM
Устройство воспроизведения: Электроника ЭП 017С
Головка звукоснимателя: Audio-Technica AT95
Предварительный усилитель: Бриг-001
АЦП: VIA HD audio device
Программа-оцифровщик: Izotope RX 4 Advanced
Обработка: Izotope RX 4 Advanced

Спектр+АЧХ+Уровень записи

DR=12

foobar2000 1.1.10 / Dynamic Range Meter 1.1.1
log date: 2015-04-26 11:18:00
--------------------------------------------------------------------------------
Analyzed: Rene Bartoli / Guitar 1
--------------------------------------------------------------------------------
DR Peak RMS Duration Track
--------------------------------------------------------------------------------
DR9 -8.93 dB -20.84 dB 1:31 ?-Prelude
DR14 -7.24 dB -23.80 dB 3:40 ?-Sarabande
DR13 -6.57 dB -22.01 dB 4:14 ?-Gavotte
DR11 -6.70 dB -20.78 dB 2:54 ?-Etude
DR14 -6.33 dB -24.17 dB 3:23 ?-Menuet № 1
DR12 -7.38 dB -22.79 dB 2:51 ?-Menuet № 2
DR10 -9.61 dB -22.67 dB 3:43 ?-Recuerdos De
DR12 -6.45 dB -23.57 dB 1:48 ?-La Alhambra
DR12 -6.80 dB -22.99 dB 2:17 ?-Adelita
DR14 -6.85 dB -24.34 dB 1:49 ?-Lagrima
DR15 -6.11 dB -25.74 dB 4:52 ?-Asturias
DR13 -5.24 dB -21.19 dB 5:24 ?-Prelude № 1
--------------------------------------------------------------------------------
Number of tracks: 12
Official DR value: DR12
Samplerate: 96000 Hz
Channels: 1
Bits per sample: 24
Bitrate: 1223 kbps
Codec: FLAC
================================================================================

Back & Disc

Поздравлений принимаются - сегодня мне 54.
когда то радовался,а сейчас уже страшно становится - многовато ...
это моё 448-я раздача
[teatrix.ru].t21053.torrent 
Торрент: Зарегистрирован [ 2016-03-20 00:54 ] · 4989328F3172F704EA729E16F396DA7995687B96

Скачать .torrent

Скачать

15 KB

Статус: проверено
Скачан: 0 раз
Размер: 342 MB
terms.php



Быстрый ответ

Имя:

      
Для отправки сообщений необходимо включить JavaScript
Показать сообщения:    

Текущее время: 05-Дек 17:35

Часовой пояс: UTC + 3


Вы можете начинать темы
Вы можете отвечать на сообщения
Вы не можете редактировать свои сообщения
Вы не можете удалять свои сообщения
Вы не можете голосовать в опросах
Вы не можете прикреплять файлы к сообщениям
Вы можете скачивать файлы