Кристиан Лубутен / Christian Louboutin (Фарида Кхелфа / Farida Khelfa) [2014, Документальный, TVRip] Rus Sub


Статистика раздачи [Обновить пиров]
Размер:  556 MB   |    Зарегистрирован:  9 месяцев 30 дней   |    Скачан:  0 раз

Полного источника не было: Никогда

 
   
 
 
 

[Цитировать]

Кристиан Лубутен / Christian Louboutin
Год выпуска: 2014
Страна: Франция (FK Production)
Жанр: Документальный
Продолжительность: 00:52:34
Перевод: Субтитры
Русские субтитры: есть
Формат субтитров: hardsub (неотключаемые)
Оригинальная аудиодорожка: французский
Режиссер: Фарида Кхелфа / Farida Khelfa
Телеканал: Аруц 8 (Израиль)
Описание: Кристиан Лубутен - французский дизайнер-модельер обуви. Отличительный знак обуви Лубутена - красные подошвы туфель. В моделях обуви использует экзотические породы кожи, стразы Сваровски, ручное кружево. Работы Лубутена используются в коллекциях Жан-Поля Готье, Balmain, Джереми Скотта, Chloé, Givenchy, Дианы фон Фюрстенберг и других мастеров от-кутюр и прет-а-порте. Среди знаменитостей, носящих туфли Лубутена — Бритни Спирс, Дита фон Тиз, Кристина Агилера, Мадонна, Сандра Буллок, а Дженнифер Лопес посвятила туфлям Лубутена песню под названием «Louboutins». Фильм рассказывает о жизни и творчестве знаменитого дизайнера. Вы сможете заглянуть в его мастерскую и увидеть весь творческий процесс создания обуви.
Релиз группы:
Доп. информация: Запись с канала "Аруц 8". Фильм на французском языке с двойными субтитрами (вшитыми) на русском языке и иврите. Перевод: Дина Аксельрод. Субтитры: Дори Медиа от ЛТД.
Сэмпл: https://yadi.sk/i/2jv5363AgKwyg
качество: TVRip
формат: AVI
Видео: 1341 Кbps, 704х432 (1.630), 25.000 fps, MPEG-4 Visual (XviD)(Advanced Simple@L5)(BVOP)
Аудио: 128 Kbps,48.0 KHz, 2 сhannels, MPEG Audio (MP3) (Version 1)(Layer 3)(Joint stereo/MS Stereo)

MediaInfo

General
Complete name : D:\Christian Louboutin.avi
Format : AVI
Format/Info : Audio Video Interleave
File size : 556 MiB
Duration : 52mn 34s
Overall bit rate : 1 479 Kbps
Writing library : VirtualDub-MPEG2 build 24600/release
Video
ID : 0
Format : MPEG-4 Visual
Format profile : Advanced Simple@L5
Format settings, BVOP : 2
Format settings, QPel : No
Format settings, GMC : No warppoints
Format settings, Matrix : Default (MPEG)
Codec ID : XVID
Codec ID/Hint : XviD
Duration : 52mn 34s
Bit rate : 1 341 Kbps
Width : 704 pixels
Height : 432 pixels
Display aspect ratio : 1.630
Frame rate : 25.000 fps
Color space : YUV
Chroma subsampling : 4:2:0
Bit depth : 8 bits
Scan type : Progressive
Compression mode : Lossy
Bits/(Pixel*Frame) : 0.176
Stream size : 504 MiB (91%)
Writing library : XviD 58
Audio
ID : 1
Format : MPEG Audio
Format version : Version 1
Format profile : Layer 3
Mode : Joint stereo
Mode extension : MS Stereo
Codec ID : 55
Codec ID/Hint : MP3
Duration : 52mn 34s
Bit rate mode : Constant
Bit rate : 128 Kbps
Channel(s) : 2 channels
Sampling rate : 48.0 KHz
Compression mode : Lossy
Stream size : 48.1 MiB (9%)
Alignment : Split accross interleaves
Interleave, duration : 40 ms (1.00 video frame)
Interleave, preload duration : 500 ms

Скриншоты

[teatrix.ru].t21054.torrent 
Торрент: Зарегистрирован [ 2016-03-20 00:54 ] · 3B1D0C005BBB63CD632645B41FBE1EAD9BD4B5C1

Скачать .torrent

Скачать

1 KB

Статус: проверено
Скачан: 0 раз
Размер: 556 MB
terms.php



Быстрый ответ

Имя:

      
Для отправки сообщений необходимо включить JavaScript
Показать сообщения:    

Текущее время: 19-Янв 22:15

Часовой пояс: UTC + 3


Вы можете начинать темы
Вы можете отвечать на сообщения
Вы не можете редактировать свои сообщения
Вы не можете удалять свои сообщения
Вы не можете голосовать в опросах
Вы не можете прикреплять файлы к сообщениям
Вы можете скачивать файлы