(Classical) Echoes of Nightingales: Encores as sung by Kirsten Flagstad, Eileen Farrell, Helen Traubel and Eleanor Steber - Christine Brewer, Roger Vignoles - 2011, FLAC (image+.cue) lossless


 

[Цитировать]

Echoes of Nightingales: Encores as sung by Kirsten Flagstad, Eileen Farrell, Helen Traubel and Eleanor Steber - Christine Brewer, Roger Vignoles
Жанр: Classical
Страна-производитель диска: UK
Год издания диска: 2011
Издатель (лейбл): Hyperion
Номер по каталогу: CDA67813
Дата записи: 2009
Аудиокодек: FLAC
Тип рипа: image+.cue
Битрейт аудио: lossless
Продолжительность: 65:52
Источник: собственный рип
Наличие сканов в содержимом раздачи: да
Треклист:
Echoes of Nightingales
Encores as sung by Kirsten Flagstad, Eileen Farrell, Helen Traubel and Eleanor Steber
[1] Sidney Homer: Sing to Me, Sing
[2] Edwin McArthur: Night
[3] Arthur Walter Kramer: Now Like a Lantern
[4] Mildred Lund Tyson: Sea Moods
[5] Landon Ronald: O Lovely Night!
[6] James H. Rogers: At Parting
[7] John Alden Carpenter: The Sleep That Flits on Baby's Eyes
[8] Paul Sargent: Hickory Hill
[9] Vincent Youmans: Through the Years
[10] Paul Nordoff: There Shall Be More Joy
[11] Frank La Forge: Hills
[12] Frank Bridge: Love Went A-Riding
[13] Idabelle Firestone: In My Garden
[14] Sigmund Romberg: Will You Remember? (Sweetheart)
[15] Idabelle Firestone: If I Could Tell You
[16] Anonymous & Thomas Moore (arr. Flotow): The Last Rose of Summer
[17] Harold Vicars: The Song of Songs (Chanson du coeur brisé)
[18] John La Montaine: Stopping by Woods on a Snowy Evening
[19] Harold Arlen: Happiness Is a Thing Called Joe
[20] Leonard Bernstein: Some Other Time
[21] Ernest Charles: When I Have Sung My Songs
[22] Celius Dougherty: Review
Исполнители:
Christine Brewer soprano
Roger Vignoles piano

Лог создания рипа

Exact Audio Copy V1.0 beta 3 from 29. August 2011
EAC extraction logfile from 20. April 2015, 1:22
Christine Brewer, Roger Vignoles / Echoes of Nightingales
Used drive : HL-DT-STDVDRAM GU70N Adapter: 0 ID: 0
Read mode : Secure
Utilize accurate stream : Yes
Defeat audio cache : Yes
Make use of C2 pointers : No
Read offset correction : 48
Overread into Lead-In and Lead-Out : No
Fill up missing offset samples with silence : Yes
Delete leading and trailing silent blocks : No
Null samples used in CRC calculations : Yes
Used interface : Native Win32 interface for Win NT & 2000
Used output format : User Defined Encoder
Selected bitrate : 128 kBit/s
Quality : High
Add ID3 tag : No
Command line compressor : C:\Program Files (x86)\Exact Audio Copy\Flac\flac.exe
Additional command line options : -V -8 -T "Date=%year%" -T "Genre=%genre%" %source%
TOC of the extracted CD
Track | Start | Length | Start sector | End sector
---------------------------------------------------------
1 | 0:00.00 | 1:49.68 | 0 | 8242
2 | 1:49.68 | 3:13.59 | 8243 | 22776
3 | 5:03.52 | 2:24.08 | 22777 | 33584
4 | 7:27.60 | 2:50.32 | 33585 | 46366
5 | 10:18.17 | 3:22.30 | 46367 | 61546
6 | 13:40.47 | 1:47.43 | 61547 | 69614
7 | 15:28.15 | 2:26.30 | 69615 | 80594
8 | 17:54.45 | 2:34.13 | 80595 | 92157
9 | 20:28.58 | 3:55.19 | 92158 | 109801
10 | 24:24.02 | 2:12.35 | 109802 | 119736
11 | 26:36.37 | 2:31.20 | 119737 | 131081
12 | 29:07.57 | 1:53.61 | 131082 | 139617
13 | 31:01.43 | 3:42.49 | 139618 | 156316
14 | 34:44.17 | 4:21.48 | 156317 | 175939
15 | 39:05.65 | 3:18.12 | 175940 | 190801
16 | 42:24.02 | 2:48.63 | 190802 | 203464
17 | 45:12.65 | 4:47.06 | 203465 | 224995
18 | 49:59.71 | 1:49.19 | 224996 | 233189
19 | 51:49.15 | 3:59.69 | 233190 | 251183
20 | 55:49.09 | 2:34.48 | 251184 | 262781
21 | 58:23.57 | 2:16.26 | 262782 | 273007
22 | 60:40.08 | 5:10.61 | 273008 | 296318
Range status and errors
Selected range
Filename C:\temp\CDA67813 - Echoes of Nightingales - Brewer, Vignoles\Echoes of Nightingales.wav
Peak level 100.0 %
Extraction speed 5.4 X
Range quality 100.0 %
Test CRC FD1D8DD1
Copy CRC FD1D8DD1
Copy OK
No errors occurred
AccurateRip summary
Track 1 accurately ripped (confidence 1) [70D1A2CE] (AR v2)
Track 2 accurately ripped (confidence 1) [3466861A] (AR v2)
Track 3 accurately ripped (confidence 1) [B17A5CB7] (AR v2)
Track 4 accurately ripped (confidence 1) [C29190E7] (AR v2)
Track 5 accurately ripped (confidence 1) [69D589A3] (AR v2)
Track 6 accurately ripped (confidence 1) [DC3E5498] (AR v2)
Track 7 accurately ripped (confidence 1) [C96F6130] (AR v2)
Track 8 accurately ripped (confidence 1) [DF2443A0] (AR v2)
Track 9 accurately ripped (confidence 1) [A51C89AF] (AR v2)
Track 10 accurately ripped (confidence 1) [02FC81A2] (AR v2)
Track 11 accurately ripped (confidence 1) [8D34E788] (AR v2)
Track 12 accurately ripped (confidence 1) [22B99E7F] (AR v2)
Track 13 accurately ripped (confidence 1) [F4BD40DC] (AR v2)
Track 14 accurately ripped (confidence 1) [775F26DD] (AR v2)
Track 15 accurately ripped (confidence 1) [91624A93] (AR v2)
Track 16 accurately ripped (confidence 1) [5E17B8F8] (AR v2)
Track 17 accurately ripped (confidence 1) [64A702F3] (AR v2)
Track 18 accurately ripped (confidence 1) [9687DC3C] (AR v2)
Track 19 accurately ripped (confidence 1) [5C7D8E8B] (AR v2)
Track 20 accurately ripped (confidence 1) [132552BD] (AR v2)
Track 21 accurately ripped (confidence 1) [8FF3219A] (AR v2)
Track 22 accurately ripped (confidence 1) [20640DE1] (AR v2)
All tracks accurately ripped
End of status report
==== Log checksum B1CBA3E5432A5591341430AF51C4C45D7DBBB9560E998DF7142DD19E2B21CA43 ====



Показать сообщения:    

Текущее время: 11-Дек 01:22

Часовой пояс: UTC + 3


Вы не можете начинать темы
Вы не можете отвечать на сообщения
Вы не можете редактировать свои сообщения
Вы не можете удалять свои сообщения
Вы не можете голосовать в опросах
Вы не можете прикреплять файлы к сообщениям
Вы не можете скачивать файлы