(Classical) [LP] [24/48] Joan Sutherland - Soprano/Джоан Сазерленд - Из Сокровищницы Мирового Исполнительского Искусства - 1980, FLAC (tracks+.cue)


Статистика раздачи [Обновить пиров]
Размер:  541 MB   |    Зарегистрирован:  8 месяцев 15 дней   |    Скачан:  0 раз

Полного источника не было: Никогда

 
   
 
 
 

[Цитировать]

Joan Sutherland - Soprano/Джоан Сазерленд - Из Сокровищницы Мирового Исполнительского Искусства
Жанр: Classical
Носитель: LP
Год выпуска: 1980
Лейбл: Melodya (MOZG)
Страна-производитель: USSR
Аудио кодек: FLAC
Тип рипа: tracks+.cue
Формат записи: 32/192
Формат раздачи: 24/48
Продолжительность: 52.55 min
Треклист:
G. F. Handel
01. Israelite Woman's Aria
W. A. Mozart
02. Queen of the Night's Aria
G. Rossini
03. Semiramide's Aria
V. Bellini
04. Norma's Cavatina
G. Donizetti
05. Duet of Linda and Carlo
G. Meyerbeer
06. Marguerite's Aria
G. Verdi
07. Odabella's Aria
08. Desdemona's Song of the Willow-tree
Luciano Pavarotti, tenor (5)
The Chorus (4) and Orchestra (1, 4, 6) of the London Covent Garden Opera
Francesco Molinari-Pradelli, conductor The London Philarmonic Orchestra (2, 7, 8)
The National Philarmonic Orchestra (3, 5)
Richard Bonynge, conductor
Archives recordings, 1960
Источник оцифровки: автором раздачи
Код класса состояния винила: NM
Устройство воспроизведения: Электроника ЭП 017С
Головка звукоснимателя: Audio-Technica AT95
Предварительный усилитель: Бриг-001
АЦП: VIA HD audio device
Программа-оцифровщик: Izotope RX 4 Advanced
Обработка: Izotope RX 4 Advanced

Спектр+АЧХ+Уровень записи

DR=13

foobar2000 1.1.10 / Dynamic Range Meter 1.1.1
log date: 2015-04-30 18:10:20
--------------------------------------------------------------------------------
Analyzed: Joan Sutherland / Vocal
--------------------------------------------------------------------------------
DR Peak RMS Duration Track
--------------------------------------------------------------------------------
DR13 -0.53 dB -17.92 dB 5:48 ?-Israelite Woman's Aria
DR11 -1.16 dB -17.33 dB 4:48 ?-Queen of the Night's Aria
DR13 -0.48 dB -18.88 dB 6:32 ?-Semiramide's Aria
DR13 -0.84 dB -21.16 dB 7:56 ?-Norma's Cavatina
DR12 -1.19 dB -18.00 dB 8:30 ?-Duet of Linda and Carlo
DR12 -2.58 dB -19.65 dB 5:37 ?-Marguerite's Aria
DR11 -0.51 dB -17.20 dB 5:45 ?-Odabella's Aria
DR15 -1.23 dB -23.21 dB 7:59 ?-Desdemona's Song of the Willow-tree
--------------------------------------------------------------------------------
Number of tracks: 8
Official DR value: DR13
Samplerate: 48000 Hz
Channels: 2
Bits per sample: 24
Bitrate: 1336 kbps
Codec: FLAC
================================================================================

Back,Inner & Disc

[teatrix.ru].t21057.torrent 
Торрент: Зарегистрирован [ 2016-03-20 00:54 ] · 2A75ED88D08A746E79367298BDD6D2723DBFEC69

Скачать .torrent

Скачать

12 KB

Статус: проверено
Скачан: 0 раз
Размер: 541 MB
terms.php



Быстрый ответ

Имя:

      
Для отправки сообщений необходимо включить JavaScript
Показать сообщения:    

Текущее время: 04-Дек 15:17

Часовой пояс: UTC + 3


Вы можете начинать темы
Вы можете отвечать на сообщения
Вы не можете редактировать свои сообщения
Вы не можете удалять свои сообщения
Вы не можете голосовать в опросах
Вы не можете прикреплять файлы к сообщениям
Вы можете скачивать файлы