(Opera) Flotow - Alessandro Stradella (Donath, Hollweg, Kogel - Orchester der Bayerischen Rundfunk, Wallberg) • Bonus: Lortzing - Regina (Frei, Klein, Friedrich - Grosse Orchester des Berliner Rundfunks, Schartner) - 2003, APE (image+.cue) lossless


 

[Цитировать]

Friedrich von Flotow - Alessandro Stradella • Albert Lortzing - Regina (Excerpts)
Жанр: Opera
Страна-производитель диска: Portugal
Год издания диска: 2003
Издатель (лейбл): Gala
Номер по каталогу: GL 100.733
Дата записи: 1951-1977
Аудиокодек: APE
Тип рипа: image+.cue
Битрейт аудио: lossless
Продолжительность: 63'38+75'03
Источник: собственный рип
Наличие сканов в содержимом раздачи: да
Треклист/Исполнители:
Flotow - Alessandro Stradella:
Disc 1
1. Introduktion
2. Act 1. In des Mondes Silberhelle
3. Act 1. Rezitativ. Wir sind zur Stelle
4. Act 1. Serenade. Horch, Liebchen! Horch!
5. Act 1. Szene. Doch seht: In der Geliebten Zimmer
6. Act 1. Notturno. Durch die Täler, über Hügel
7. Act 1. Finale. Doch horch!
8. Act 1. Komm, Liebchen, komm!
9. Act 1. Leonore! Leonore!
10. Act 2. Rezitativ. So wär es denn erreicht
11. Act 2. Arie. Seid meiner Wonne stille Zeugen
12. Act 2. Glockenchor. Hört die Glocken!
13. Act 2. Duett. An dem linken Strand der Tiber
14. Act 2. Finale. Clockenklänge?
15. Act 2. O! daß immer uns im Leben
16. Act 2. Und jetzt, mein Weibchen
17. Act 2. Trinklied. Raus mit dem Naß aus dem Faß
18. Act 2. Doch soll die Lust willkommen sein
Disc 2
1. Act 3. Introduktion
2. Act 3. Italia, mein Vaterland
3. Act 3. Pilgerchor. Rosig strahlt die Morgensonne
4. Act 3. Rezitativ. Das Haus scheint leer!
5. Act 3. Terzett. Sag' doch an, Freund Barbarino
6. Act 3. Terzettino. Ruhig! Leise! Stille! Sacht!
7. Act 3. Finale. Wie freundlich strahlt der Tag
8. Act 3. Hymne. Jungfrau Maria!
9. Act 3. O! Erleuchte den Verlockten
10. Act 3. Wie? Was seh' ich?
Friedrich von Flotow - Alessandro Stradella
Opera in 3 acts
Leonore - Helen Donath
Stradella - Werner Hollweg
Bassi - Richard Kogel
Malvolio - Alexander Malta
Barbarino - Ferry Gruber
Orchester und Chor der Bayerischen Rundfunk
Conductor, Heinz WallbergLortzing - Regina:
Disc 2
11. Ouvertüre
12. Wir wollen nicht
13. Duett. O teurer Freund
14. Arioso. O schöner Augenblick
15. Ich habe Dich mein teurer Sohn
16. Tanz
17. Arie. Was sprach der alte Tor?
18. Verloren sind wir
19. Friedenslied. Nicht so bleiben kann dies Treiben
20. Duett. Was du begehrst, kann nimmer ich gewähren
21. Schlußchor. Frisch auf, frisch auf und einig seid!
Albert Lortzing - Regina (Excerpts)
Simon - Gerhard Frei
Regina - Irmgard Klein
Stefan - Heinz Friedrich
Richard - Karl Heinz Stracke
Beate - Sonja-Vera Korch
Kilian - Ernst Kozub
Wolfgang - Herbert Rungenhagen
Barbara - Ilse Schartner
Grosse Chor und Männerchor der Solistenvereinigung des Berliner Rundfunks
Grosse Orchester des Berliner Rundfunks
Walter Schartner, Conductor

Лог создания рипа

CD1

Exact Audio Copy V1.0 beta 3 from 29. August 2011
EAC extraction logfile from 30. April 2015, 15:23
Flotow / Alessandro Stradella, Wallberg CD1
Used drive : TSSTcorpCDDVDW SE-208AB Adapter: 1 ID: 0
Read mode : Secure
Utilize accurate stream : Yes
Defeat audio cache : Yes
Make use of C2 pointers : No
Read offset correction : 6
Overread into Lead-In and Lead-Out : No
Fill up missing offset samples with silence : Yes
Delete leading and trailing silent blocks : No
Null samples used in CRC calculations : Yes
Used interface : Native Win32 interface for Win NT & 2000
Used output format : Monkey's Audio Lossless Encoder
Selected bitrate : High Lossless Compression
Quality : High
Add ID3 tag : Yes
Command line compressor : C:\Program Files (x86)\Exact Audio Copy\MAC\MAC.exe
TOC of the extracted CD
Track | Start | Length | Start sector | End sector
---------------------------------------------------------
1 | 0:00.00 | 7:23.50 | 0 | 33274
2 | 7:23.50 | 4:07.55 | 33275 | 51854
3 | 11:31.30 | 1:49.31 | 51855 | 60060
4 | 13:20.61 | 1:52.73 | 60061 | 68533
5 | 15:13.59 | 2:22.27 | 68534 | 79210
6 | 17:36.11 | 3:06.00 | 79211 | 93160
7 | 20:42.11 | 3:56.61 | 93161 | 110921
8 | 24:38.72 | 2:43.44 | 110922 | 123190
9 | 27:22.41 | 3:01.27 | 123191 | 136792
10 | 30:23.68 | 2:37.53 | 136793 | 148620
11 | 33:01.46 | 5:42.22 | 148621 | 174292
12 | 38:43.68 | 3:29.68 | 174293 | 190035
13 | 42:13.61 | 7:46.08 | 190036 | 224993
14 | 49:59.69 | 2:11.24 | 224994 | 234842
15 | 52:11.18 | 2:52.69 | 234843 | 247811
16 | 55:04.12 | 2:59.39 | 247812 | 261275
17 | 58:03.51 | 1:15.26 | 261276 | 266926
18 | 59:19.02 | 4:17.61 | 266927 | 286262
Range status and errors
Selected range
Filename D:\EAC\Flotow - Alessandro Stradella, Wallberg CD1.wav
Peak level 100.0 %
Extraction speed 4.8 X
Range quality 100.0 %
Test CRC 8929D7D4
Copy CRC 8929D7D4
Copy OK
No errors occurred
AccurateRip summary
Track 1 accurately ripped (confidence 3) [FBDD932E] (AR v1)
Track 2 accurately ripped (confidence 3) [1E4E3C16] (AR v1)
Track 3 accurately ripped (confidence 3) [181A51CB] (AR v1)
Track 4 accurately ripped (confidence 3) [95C2445A] (AR v1)
Track 5 accurately ripped (confidence 3) [F072FC1B] (AR v1)
Track 6 accurately ripped (confidence 3) [68BEEFC2] (AR v1)
Track 7 accurately ripped (confidence 3) [3B7B49DA] (AR v1)
Track 8 accurately ripped (confidence 3) [84AD5701] (AR v1)
Track 9 accurately ripped (confidence 3) [23A71DB8] (AR v1)
Track 10 accurately ripped (confidence 3) [F1277CAD] (AR v1)
Track 11 accurately ripped (confidence 3) [E29EA7A3] (AR v1)
Track 12 accurately ripped (confidence 3) [466964F4] (AR v1)
Track 13 accurately ripped (confidence 3) [D2A49108] (AR v1)
Track 14 accurately ripped (confidence 3) [23FB6A96] (AR v1)
Track 15 accurately ripped (confidence 3) [877B0838] (AR v1)
Track 16 accurately ripped (confidence 3) [E167BC61] (AR v1)
Track 17 accurately ripped (confidence 3) [B95042C7] (AR v1)
Track 18 accurately ripped (confidence 3) [30388B84] (AR v1)
All tracks accurately ripped
End of status report
---- CUETools DB Plugin V2.1.3
[CTDB TOCID: kbkd9ZvqS9vsPCwZF7n6YsmG7EE-] found, Submit result: kbkd9ZvqS9vsPCwZF7n6YsmG7EE- has been uploaded
[73455f55] (1/1) Differs in 22 samples @10:31:53,10:34:62,11:25:17,23:27:68
You can use CUETools to repair this rip.
==== Log checksum 3172EDDF69AF06EB2C2344C4524E419AE87DA6EB90C6D90436B8910371ABBE1B ====

CD2

Exact Audio Copy V1.0 beta 3 from 29. August 2011
EAC extraction logfile from 30. April 2015, 15:42
Flotow • Lortzing / Alessandro Stradella • Regina CD2
Used drive : TS8XDVDSTRANSCEND Adapter: 1 ID: 1
Read mode : Secure
Utilize accurate stream : Yes
Defeat audio cache : Yes
Make use of C2 pointers : No
Read offset correction : 6
Overread into Lead-In and Lead-Out : No
Fill up missing offset samples with silence : Yes
Delete leading and trailing silent blocks : No
Null samples used in CRC calculations : Yes
Used interface : Native Win32 interface for Win NT & 2000
Used output format : Monkey's Audio Lossless Encoder
Selected bitrate : High Lossless Compression
Quality : High
Add ID3 tag : Yes
Command line compressor : C:\Program Files (x86)\Exact Audio Copy\MAC\MAC.exe
TOC of the extracted CD
Track | Start | Length | Start sector | End sector
---------------------------------------------------------
1 | 0:00.00 | 1:29.56 | 0 | 6730
2 | 1:29.56 | 4:50.02 | 6731 | 28482
3 | 6:19.58 | 2:37.72 | 28483 | 40329
4 | 8:57.55 | 0:21.26 | 40330 | 41930
5 | 9:19.06 | 5:18.23 | 41931 | 65803
6 | 14:37.29 | 0:56.65 | 65804 | 70068
7 | 15:34.19 | 2:02.74 | 70069 | 79292
8 | 17:37.18 | 2:52.31 | 79293 | 92223
9 | 20:29.49 | 2:35.45 | 92224 | 103893
10 | 23:05.19 | 2:15.48 | 103894 | 114066
11 | 25:20.67 | 5:49.00 | 114067 | 140241
12 | 31:09.67 | 7:38.25 | 140242 | 174616
13 | 38:48.17 | 4:54.38 | 174617 | 196704
14 | 43:42.55 | 2:55.44 | 196705 | 209873
15 | 46:38.24 | 2:15.52 | 209874 | 220050
16 | 48:54.01 | 2:03.44 | 220051 | 229319
17 | 50:57.45 | 7:12.22 | 229320 | 261741
18 | 58:09.67 | 6:50.36 | 261742 | 292527
19 | 65:00.28 | 3:22.08 | 292528 | 307685
20 | 68:22.36 | 3:36.63 | 307686 | 323948
21 | 71:59.24 | 3:02.46 | 323949 | 337644
Range status and errors
Selected range
Filename D:\EAC\Flotow • Lortzing - Alessandro Stradella • Regina CD2.wav
Peak level 86.0 %
Extraction speed 3.4 X
Range quality 99.9 %
Test CRC 8CC91DEF
Copy CRC 8CC91DEF
Copy OK
No errors occurred
AccurateRip summary
Track 1 accurately ripped (confidence 2) [8E405093] (AR v1)
Track 2 accurately ripped (confidence 2) [C317B081] (AR v1)
Track 3 accurately ripped (confidence 2) [6ADA3F1E] (AR v1)
Track 4 accurately ripped (confidence 2) [BACCFA3D] (AR v1)
Track 5 accurately ripped (confidence 2) [F6E8C18F] (AR v1)
Track 6 accurately ripped (confidence 2) [DAAEB918] (AR v1)
Track 7 accurately ripped (confidence 2) [A7EDCEFD] (AR v1)
Track 8 accurately ripped (confidence 2) [3099A283] (AR v1)
Track 9 accurately ripped (confidence 2) [DE72782F] (AR v1)
Track 10 accurately ripped (confidence 2) [92A640A5] (AR v1)
Track 11 accurately ripped (confidence 2) [6831944A] (AR v1)
Track 12 accurately ripped (confidence 2) [D4DFF4F3] (AR v1)
Track 13 accurately ripped (confidence 2) [4E869E36] (AR v1)
Track 14 accurately ripped (confidence 2) [68FFB38C] (AR v1)
Track 15 accurately ripped (confidence 2) [6DC39BDF] (AR v1)
Track 16 accurately ripped (confidence 2) [81D4CCB3] (AR v1)
Track 17 accurately ripped (confidence 2) [EB64EED2] (AR v1)
Track 18 accurately ripped (confidence 2) [91D1623E] (AR v1)
Track 19 accurately ripped (confidence 2) [E077E45B] (AR v1)
Track 20 accurately ripped (confidence 2) [BA92268D] (AR v1)
Track 21 accurately ripped (confidence 2) [DC6529C3] (AR v1)
All tracks accurately ripped
End of status report
---- CUETools DB Plugin V2.1.3
[CTDB TOCID: jkBNggc_aSxIroFnplFZHztueBg-] found, Submit result: unrecognized or virtual drive
[6c697320] (1/1) Differs in 10 samples @11:33:46
You can use CUETools to repair this rip.
==== Log checksum AC56955DDB4E860F434040EE61BC6DE90FF6688ED8163F135A0B4C2CD3ACDFAC ====

Содержание индексной карты (.CUE)

CD1

REM GENRE Opera
REM DATE 1977
REM DISCID EC0EE812
REM COMMENT "ExactAudioCopy v1.0b3"
PERFORMER "Flotow"
TITLE "Alessandro Stradella, Wallberg CD1"
FILE "Flotow - Alessandro Stradella, Wallberg CD1.ape" WAVE
TRACK 01 AUDIO
TITLE "Ouvertüre"
PERFORMER "Flotow"
INDEX 01 00:00:00
TRACK 02 AUDIO
TITLE "In des Mondes Silberhelle"
PERFORMER "Flotow"
INDEX 01 07:23:50
TRACK 03 AUDIO
TITLE "Wir sind zur Stelle"
PERFORMER "Flotow"
INDEX 01 11:31:30
TRACK 04 AUDIO
TITLE "Serenade: Horch, Liebchen! Horch!"
PERFORMER "Flotow"
INDEX 01 13:20:61
TRACK 05 AUDIO
TITLE "Doch seht: In der Geliebten Zimmer"
PERFORMER "Flotow"
INDEX 01 15:13:59
TRACK 06 AUDIO
TITLE "Notturno: Durch die Täler, über Hügel"
PERFORMER "Flotow"
INDEX 01 17:36:11
TRACK 07 AUDIO
TITLE "Finale: Doch horch!"
PERFORMER "Flotow"
INDEX 01 20:42:11
TRACK 08 AUDIO
TITLE "Komm, Liebchen, komm"
PERFORMER "Flotow"
INDEX 01 24:38:72
TRACK 09 AUDIO
TITLE "Leonore! Leonore!"
PERFORMER "Flotow"
INDEX 01 27:22:41
TRACK 10 AUDIO
TITLE "Akt II So wär es denn erreicht"
PERFORMER "Flotow"
INDEX 01 30:23:68
TRACK 11 AUDIO
TITLE "Arie: Seid meiner Wonne stille Zeugen"
PERFORMER "Flotow"
INDEX 01 33:01:46
TRACK 12 AUDIO
TITLE "Glockenchor: Hört die Glocken!"
PERFORMER "Flotow"
INDEX 01 38:43:68
TRACK 13 AUDIO
TITLE "Duett: An dem linken Strand der Tiber"
PERFORMER "Flotow"
INDEX 01 42:13:61
TRACK 14 AUDIO
TITLE "Finale: Glockenklänge?"
PERFORMER "Flotow"
INDEX 01 49:59:69
TRACK 15 AUDIO
TITLE "O! daß immer uns im Leben"
PERFORMER "Flotow"
INDEX 01 52:11:18
TRACK 16 AUDIO
TITLE "Und jetzt, mein Weibchen"
PERFORMER "Flotow"
INDEX 01 55:04:12
TRACK 17 AUDIO
TITLE "Trinklied: Raus mit dem Naß aus dem Faß"
PERFORMER "Flotow"
INDEX 01 58:03:51
TRACK 18 AUDIO
TITLE "Doch soll die Lust willkommen sein"
PERFORMER "Flotow"
INDEX 01 59:19:02

CD2

REM GENRE Opera
REM DATE 1977
REM DISCID 1B119515
REM COMMENT "ExactAudioCopy v1.0b3"
PERFORMER "Flotow • Lortzing"
TITLE "Alessandro Stradella • Regina CD2"
FILE "Flotow • Lortzing - Alessandro Stradella • Regina CD2.ape" WAVE
TRACK 01 AUDIO
TITLE "Act 3. Introduktion"
PERFORMER "Flotow"
INDEX 01 00:00:00
TRACK 02 AUDIO
TITLE "Act 3. Italia, mein Vaterland"
PERFORMER "Flotow"
INDEX 01 01:29:56
TRACK 03 AUDIO
TITLE "Act 3. Pilgerchor. Rosig strahlt die Morgensonne"
PERFORMER "Flotow"
INDEX 01 06:19:58
TRACK 04 AUDIO
TITLE "Act 3. Rezitativ. Das Haus scheint leer!"
PERFORMER "Flotow"
INDEX 01 08:57:55
TRACK 05 AUDIO
TITLE "Act 3. Terzett. Sag' doch an, Freund Barbarino"
PERFORMER "Flotow"
INDEX 01 09:19:06
TRACK 06 AUDIO
TITLE "Act 3. Terzettino. Ruhig! Leise! Stille! Sacht!"
PERFORMER "Flotow"
INDEX 01 14:37:29
TRACK 07 AUDIO
TITLE "Act 3. Finale. Wie freundlich strahlt der Tag"
PERFORMER "Flotow"
INDEX 01 15:34:19
TRACK 08 AUDIO
TITLE "Act 3. Hymne. Jungfrau Maria!"
PERFORMER "Flotow"
INDEX 01 17:37:18
TRACK 09 AUDIO
TITLE "Act 3. O! Erleuchte den Verlockten"
PERFORMER "Flotow"
INDEX 01 20:29:49
TRACK 10 AUDIO
TITLE "Act 3. Wie? Was seh' ich?"
PERFORMER "Flotow"
INDEX 01 23:05:19
TRACK 11 AUDIO
TITLE "Ouvertüre"
PERFORMER " Lortzing"
INDEX 01 25:20:67
TRACK 12 AUDIO
TITLE "Wir wollen nicht"
PERFORMER " Lortzing"
INDEX 01 31:09:67
TRACK 13 AUDIO
TITLE "Duett. O teurer Freund"
PERFORMER " Lortzing"
INDEX 01 38:48:17
TRACK 14 AUDIO
TITLE "Arioso. O schöner Augenblick"
PERFORMER " Lortzing"
INDEX 01 43:42:55
TRACK 15 AUDIO
TITLE "Ich habe Dich mein teurer Sohn"
PERFORMER " Lortzing"
INDEX 01 46:38:24
TRACK 16 AUDIO
TITLE "Tanz"
PERFORMER " Lortzing"
INDEX 01 48:54:01
TRACK 17 AUDIO
TITLE "Arie. Was sprach der alte Tor?"
PERFORMER " Lortzing"
INDEX 01 50:57:45
TRACK 18 AUDIO
TITLE "Verloren sind wir"
PERFORMER " Lortzing"
INDEX 01 58:09:67
TRACK 19 AUDIO
TITLE "Friedenslied. Nicht so bleiben kann dies Treiben"
PERFORMER " Lortzing"
INDEX 01 65:00:28
TRACK 20 AUDIO
TITLE "Duett. Was du begehrst, kann nimmer ich gewähren"
PERFORMER " Lortzing"
INDEX 01 68:22:36
TRACK 21 AUDIO
TITLE "Schlußchor. Frisch auf, frisch auf und einig seid!"
PERFORMER " Lortzing"
INDEX 01 71:59:24
Доп. информация:
Although, Friedrich von Flotow's opera, Alessandro Stradella, will never displace the works of Wagner, Weber, or even Otto Nicolai, it has its distinctive and appealing charms.
Flotow, of course, is much better known though his opera Martha, which still holds the stage, if barely (it once was a major repertoire item at the MET).
This production, dating from 1977 (Bayerische Rundfunk), features some fine singing by Werner Hollweg in the title roll, and Helen Donath as Leonore.
The easy arias, ensembles, and choruses fall nicely on the ear---much of the music is quite hummable, and indeed, Alessandro's famous aria, "Jungfrau Maria," continues to be a favorite of lyric tenors.



Показать сообщения:    

Текущее время: 07-Дек 19:28

Часовой пояс: UTC + 3


Вы не можете начинать темы
Вы не можете отвечать на сообщения
Вы не можете редактировать свои сообщения
Вы не можете удалять свои сообщения
Вы не можете голосовать в опросах
Вы не можете прикреплять файлы к сообщениям
Вы не можете скачивать файлы