По волне моей памяти. Батырхан Шукенов [2009, Документальный, биография, музыка, беседа, SATRip]


Статистика раздачи [Обновить пиров]
Размер:  599 MB   |    Зарегистрирован:  8 месяцев 18 дней   |    Скачан:  0 раз

Полного источника не было: Никогда

 
   
 
 
 

[Цитировать]

По волне моей памяти. Батырхан Шукенов
Дата/Год выпуска: 2009
Страна: Россия, ЗАО "Первый канал"
Жанр: Документальный, биография, музыка, беседа
Продолжительность: 00:51:00
Перевод: Не требуется
Русские субтитры: нет
Ведущий: Олег Нестеров
Описание: Школьная пора — золотое время в жизни каждого человека. Уже в те годы Батырхан Шукенов увлекся музыкой...Ему, 12-летнему парню, она, в буквальном смысле, «вскружила» голову. Первый инструмент, который его заинтересовал, была гитара. В Ленинград Батыр приехал с намерениями повысить свой профессиональный уровень и мастерство. В руках у музыканта был саксофон — один из нескольких инструментов, которыми он успел овладеть. Два года Батырхан прожил в культурной столице, и вспоминает то время как самое значимое в его становлении. О себе, о своей жизни Батырхан Шукенов рассказал Олегу Нестерову в программе «По волне моей памяти».
качество: SATRip
формат: AVI
Видео: 640х480 (1.33:1), 25 fps, XviD ~1501 kbps avg, 0.19 bit/pixel
Аудио: 48 kHz, MPEG Layer 3, 2 ch, ~128 kbps avg

MediaInfo

Complete name                            : C:\Users\Home\Desktop\временная\po_volne_mojej_pamjati_batyrhan_shukenov.avi
Format : AVI
Format/Info : Audio Video Interleave
File size : 599 MiB
Duration : 51mn 0s
Overall bit rate : 1 642 Kbps
Writing library : TMPGEnc 4.0 XPress Version. 4.7.7.307
Video
ID : 0
Format : MPEG-4 Visual
Format profile : Simple@L1
Format settings, BVOP : No
Format settings, QPel : No
Format settings, GMC : No warppoints
Format settings, Matrix : Default (H.263)
Codec ID : XVID
Codec ID/Hint : XviD
Duration : 51mn 0s
Bit rate : 1 501 Kbps
Width : 640 pixels
Height : 480 pixels
Display aspect ratio : 4:3
Frame rate : 25.000 fps
Color space : YUV
Chroma subsampling : 4:2:0
Bit depth : 8 bits
Scan type : Progressive
Compression mode : Lossy
Bits/(Pixel*Frame) : 0.195
Stream size : 548 MiB (91%)
Writing library : Lavc52.83.0
Audio
ID : 1
Format : MPEG Audio
Format version : Version 1
Format profile : Layer 3
Mode : Joint stereo
Mode extension : MS Stereo
Codec ID : 55
Codec ID/Hint : MP3
Duration : 51mn 0s
Bit rate mode : Constant
Bit rate : 128 Kbps
Channel count : 2 channels
Sampling rate : 48.0 KHz
Compression mode : Lossy
Stream size : 46.7 MiB (8%)
Alignment : Aligned on interleaves
Interleave, duration : 40 ms (1.00 video frame)
Interleave, preload duration : 384 ms

Скриншоты

[teatrix.ru].t21059.torrent 
Торрент: Зарегистрирован [ 2016-03-20 00:54 ] · DC4F5CD7947C39E87B5388968DB6B35095C79490

Скачать .torrent

Скачать

12 KB

Статус: проверено
Скачан: 0 раз
Размер: 599 MB
terms.php



Быстрый ответ

Имя:

      
Для отправки сообщений необходимо включить JavaScript
Показать сообщения:    

Текущее время: 07-Дек 11:32

Часовой пояс: UTC + 3


Вы можете начинать темы
Вы можете отвечать на сообщения
Вы не можете редактировать свои сообщения
Вы не можете удалять свои сообщения
Вы не можете голосовать в опросах
Вы не можете прикреплять файлы к сообщениям
Вы можете скачивать файлы