(Classical) София Губайдулина - Раскаяние; Серенада; Фортепианная соната; Sotto voce - Wen-Sinn Yang, Franz Halász (Halasz), Jacob Kellermann, Lucas Brar, Philipp Stubenrauch, Debora Halász, Hariolf Schlichtig - 2014, FLAC (image+.cue) loss


 

[Цитировать]

София Губайдулина - Раскаяние; Серенада; Фортепианная соната; Sotto voce - Wen-Sinn Yang, Franz Halász, Jacob Kellermann, Lucas Brar, Philipp Stubenrauch, Débora Halász, Hariolf Schlichtig
Жанр: Classical
Страна-производитель диска: Sweden
Год издания диска: 2014
Издатель (лейбл): BIS
Номер по каталогу: BIS-SACD-2056
Дата записи: 2013
Аудиокодек: FLAC
Тип рипа: image+.cue
Битрейт аудио: lossless
Продолжительность: 70:07
Источник: собственный рип
Наличие сканов в содержимом раздачи: да
Треклист:
София Губайдулина
[1] Раскаяние (2008)
Wen-Sinn Yang cello · Franz Halász guitar I
Jacob Kellermann guitar II · Lucas Brar guitar III
Philipp Stubenrauch double bass
[2] Серенада (1960)
Franz Halász guitar
[3]-[5] Соната для фортепиано (1965)
Débora Halász piano
[6] Sotto voce (2010/13) world première recording
Hariolf Schlichtig viola · Philipp Stubenrauch double bass
Jacob Kellermann guitar I · Lucas Brar guitar II
Исполнители:
Wen-Sinn Yang cello
Franz Halász guitar
Jacob Kellermann guitar
Lucas Brar guitar
Philipp Stubenrauch double bass
Débora Halász piano
Hariolf Schlichtig viola

Лог создания рипа

Exact Audio Copy V1.0 beta 3 from 29. August 2011
EAC extraction logfile from 20. December 2014, 19:47
- / Gubaidulina - Repentance
Used drive : HL-DT-STDVDRAM GU70N Adapter: 0 ID: 0
Read mode : Secure
Utilize accurate stream : Yes
Defeat audio cache : Yes
Make use of C2 pointers : No
Read offset correction : 48
Overread into Lead-In and Lead-Out : No
Fill up missing offset samples with silence : Yes
Delete leading and trailing silent blocks : No
Null samples used in CRC calculations : Yes
Used interface : Native Win32 interface for Win NT & 2000
Used output format : User Defined Encoder
Selected bitrate : 128 kBit/s
Quality : High
Add ID3 tag : No
Command line compressor : C:\Program Files (x86)\Exact Audio Copy\Flac\flac.exe
Additional command line options : -V -8 -T "Date=%year%" -T "Genre=%genre%" %source%
TOC of the extracted CD
Track | Start | Length | Start sector | End sector
---------------------------------------------------------
1 | 0:00.00 | 22:12.10 | 0 | 99909
2 | 22:12.10 | 2:45.65 | 99910 | 112349
3 | 24:58.00 | 11:16.58 | 112350 | 163107
4 | 36:14.58 | 7:02.52 | 163108 | 194809
5 | 43:17.35 | 3:03.15 | 194810 | 208549
6 | 46:20.50 | 23:46.38 | 208550 | 315537
Range status and errors
Selected range
Filename C:\temp\BIS-SACD-2056 - Gubaidulina - Repentance\Gubaidulina - Repentance.wav
Peak level 96.7 %
Extraction speed 2.3 X
Range quality 100.0 %
Test CRC 53C69BD4
Copy CRC 53C69BD4
Copy OK
No errors occurred
AccurateRip summary
Track 1 accurately ripped (confidence 2) [55D9418F] (AR v2)
Track 2 accurately ripped (confidence 2) [2295C062] (AR v2)
Track 3 accurately ripped (confidence 2) [8807FE45] (AR v2)
Track 4 accurately ripped (confidence 2) [641E1D85] (AR v2)
Track 5 accurately ripped (confidence 2) [57F92D84] (AR v2)
Track 6 accurately ripped (confidence 2) [D41AAA26] (AR v2)
All tracks accurately ripped
End of status report
==== Log checksum DA946DCBCAF0D6D831630870926364949394C2D0AB8340EFFD67B84C64CF5FF2 ====



Показать сообщения:    

Текущее время: 09-Дек 18:26

Часовой пояс: UTC + 3


Вы не можете начинать темы
Вы не можете отвечать на сообщения
Вы не можете редактировать свои сообщения
Вы не можете удалять свои сообщения
Вы не можете голосовать в опросах
Вы не можете прикреплять файлы к сообщениям
Вы не можете скачивать файлы