(Opera) Gioachino Rossini - Il Turco in Italia / Джоаккино Россини - Турок в Италии (Oliviero de Fabritiis; Eugenia Ratti, Nicola Rossi-Lemeni, Agostino Lazzari, Mariano Stabile, Melchiore Luise), 1957 - live performance / 1991, FLAC(tracks),lossless


 

[Цитировать]

Gioachino Rossini - Il Turco in Italia / Джоаккино Россини - Турок в Италии (Oliviero de Fabritiis; Eugenia Ratti, Nicola Rossi-Lemeni, Agostino Lazzari, Mariano Stabile, Melchiore Luise)
Жанр: Opera
Страна-производитель диска: Италия
Год издания диска: 1991
Издатель (лейбл): GDS (Giuseppe di Stefano Records)
Дата записи: 1957
Аудиокодек: FLAC
Тип рипа: tracks
Битрейт аудио: lossless
Продолжительность: 103:49
Источник: релизер (Guillermo)
Исполнители:
Donna Fiorilla - Eugenia Ratti,
Selim - Nicola Rossi-Lemeni,
Don Narciso - Agostino Lazzari,
Prosdocimo - Mariano Stabile,
Don Geronio - Melchiore Luise,
Zaide - Jolanda Gardino,
Albazar - Renato Ercolani.
Oliviero de Fabritiis, Conductor,
Orchestra and Chorus of Teatro di San Carlo di Napoli.
Recording of a live performance, Paris, June 1957.

Лог создания рипаЛог создания рипа CD 1

Exact Audio Copy V1.0 beta 3 from 29. August 2011
EAC extraction logfile from 27. April 2015, 12:51
Artista desconocido / Título desconocido
Used drive : HL-DT-STDVDRAM GH24NSC0 Adapter: 3 ID: 0
Read mode : Secure
Utilize accurate stream : Yes
Defeat audio cache : Yes
Make use of C2 pointers : No
Read offset correction : 6
Overread into Lead-In and Lead-Out : No
Fill up missing offset samples with silence : Yes
Delete leading and trailing silent blocks : No
Null samples used in CRC calculations : Yes
Used interface : Native Win32 interface for Win NT & 2000
Used output format : User Defined Encoder
Selected bitrate : 768 kBit/s
Quality : High
Add ID3 tag : No
Command line compressor : C:\Program Files (x86)\Exact Audio Copy\FLAC\FLAC.EXE
Additional command line options : -8 -V -T "ARTIST=%artist%" -T "TITLE=%title%" -T "ALBUM=%albumtitle%" -T "DATE=%year%" -T "TRACKNUMBER=%tracknr%" -T "GENRE=%genre%" -T "PERFORMER=%albuminterpret%" -T "COMPOSER=%composer%" %haslyrics%--tag-from-file=LYRICS="%lyricsfile%"%haslyrics% -T "ALBUMARTIST=%albumartist%" -T "DISCNUMBER=%cdnumber%" -T "TOTALDISCS=%totalcds%" -T "TOTALTRACKS=%numtracks%" -T "COMMENT=%comment%" %source% -o %dest%
TOC of the extracted CD
Track | Start | Length | Start sector | End sector
---------------------------------------------------------
1 | 0:00.32 | 9:24.73 | 32 | 42404
2 | 9:25.30 | 5:59.20 | 42405 | 69349
3 | 15:24.50 | 7:23.37 | 69350 | 102611
4 | 22:48.12 | 4:24.20 | 102612 | 122431
5 | 27:12.32 | 10:03.63 | 122432 | 167719
6 | 37:16.20 | 6:48.27 | 167720 | 198346
7 | 44:04.47 | 9:08.38 | 198347 | 239484
8 | 53:13.10 | 2:25.45 | 239485 | 250404
9 | 55:38.55 | 7:10.05 | 250405 | 282659
10 | 62:48.60 | 6:09.07 | 282660 | 310341
Track 1
Filename f:\Users\Guillermo\Desktop\EAC convertidos\01 Pista01.wav
Pre-gap length 0:00:02.42
Peak level 95.8 %
Extraction speed 1.8 X
Track quality 99.9 %
Test CRC 3B004E66
Copy CRC 3B004E66
Copy OK
Track 2
Filename f:\Users\Guillermo\Desktop\EAC convertidos\02 Pista02.wav
Peak level 98.6 %
Extraction speed 2.2 X
Track quality 100.0 %
Test CRC DB58063C
Copy CRC DB58063C
Copy OK
Track 3
Filename f:\Users\Guillermo\Desktop\EAC convertidos\03 Pista03.wav
Peak level 82.8 %
Extraction speed 2.5 X
Track quality 100.0 %
Test CRC DC5D6420
Copy CRC DC5D6420
Copy OK
Track 4
Filename f:\Users\Guillermo\Desktop\EAC convertidos\04 Pista04.wav
Peak level 51.0 %
Extraction speed 2.5 X
Track quality 100.0 %
Test CRC EC839E38
Copy CRC EC839E38
Copy OK
Track 5
Filename f:\Users\Guillermo\Desktop\EAC convertidos\05 Pista05.wav
Peak level 77.0 %
Extraction speed 3.0 X
Track quality 100.0 %
Test CRC 0DAE7104
Copy CRC 0DAE7104
Copy OK
Track 6
Filename f:\Users\Guillermo\Desktop\EAC convertidos\06 Pista06.wav
Peak level 63.0 %
Extraction speed 3.1 X
Track quality 100.0 %
Test CRC 7B12BC71
Copy CRC 7B12BC71
Copy OK
Track 7
Filename f:\Users\Guillermo\Desktop\EAC convertidos\07 Pista07.wav
Peak level 87.1 %
Extraction speed 3.5 X
Track quality 100.0 %
Test CRC 4EDE909A
Copy CRC 4EDE909A
Copy OK
Track 8
Filename f:\Users\Guillermo\Desktop\EAC convertidos\08 Pista08.wav
Pre-gap length 0:00:02.00
Peak level 83.1 %
Extraction speed 2.9 X
Track quality 100.0 %
Test CRC E8A0E327
Copy CRC E8A0E327
Copy OK
Track 9
Filename f:\Users\Guillermo\Desktop\EAC convertidos\09 Pista09.wav
Peak level 70.1 %
Extraction speed 3.6 X
Track quality 100.0 %
Test CRC 9AD472F5
Copy CRC 9AD472F5
Copy OK
Track 10
Filename f:\Users\Guillermo\Desktop\EAC convertidos\10 Pista10.wav
Peak level 75.1 %
Extraction speed 3.7 X
Track quality 100.0 %
Test CRC FF38B3AC
Copy CRC FF38B3AC
Copy OK
No errors occurred
End of status report
==== Log checksum A73C4892D6C835EDA2B1DFFB55CA3E3F269BD8BDA6E45CAE4DA529AD6AC13E85 ====

Лог создания рипа CD 2

Exact Audio Copy V1.0 beta 3 from 29. August 2011
EAC extraction logfile from 27. April 2015, 13:48
Artista desconocido / Título desconocido
Used drive : HL-DT-STDVDRAM GH24NSC0 Adapter: 3 ID: 0
Read mode : Secure
Utilize accurate stream : Yes
Defeat audio cache : Yes
Make use of C2 pointers : No
Read offset correction : 6
Overread into Lead-In and Lead-Out : No
Fill up missing offset samples with silence : Yes
Delete leading and trailing silent blocks : No
Null samples used in CRC calculations : Yes
Used interface : Native Win32 interface for Win NT & 2000
Used output format : User Defined Encoder
Selected bitrate : 768 kBit/s
Quality : High
Add ID3 tag : No
Command line compressor : C:\Program Files (x86)\Exact Audio Copy\FLAC\FLAC.EXE
Additional command line options : -8 -V -T "ARTIST=%artist%" -T "TITLE=%title%" -T "ALBUM=%albumtitle%" -T "DATE=%year%" -T "TRACKNUMBER=%tracknr%" -T "GENRE=%genre%" -T "PERFORMER=%albuminterpret%" -T "COMPOSER=%composer%" %haslyrics%--tag-from-file=LYRICS="%lyricsfile%"%haslyrics% -T "ALBUMARTIST=%albumartist%" -T "DISCNUMBER=%cdnumber%" -T "TOTALDISCS=%totalcds%" -T "TOTALTRACKS=%numtracks%" -T "COMMENT=%comment%" %source% -o %dest%
TOC of the extracted CD
Track | Start | Length | Start sector | End sector
---------------------------------------------------------
1 | 0:00.32 | 14:41.55 | 32 | 66161
2 | 14:42.12 | 2:07.15 | 66162 | 75701
3 | 16:49.27 | 10:03.20 | 75702 | 120946
4 | 26:52.47 | 6:58.03 | 120947 | 152299
5 | 33:50.50 | 4:40.57 | 152300 | 173356
6 | 38:31.32 | 8:13.65 | 173357 | 210396
7 | 46:45.22 | 5:58.60 | 210397 | 237306
8 | 52:44.07 | 11:18.00 | 237307 | 288156
9 | 64:02.07 | 7:52.00 | 288157 | 323556
Track 1
Filename f:\Users\Guillermo\Desktop\EAC convertidos\01 Pista01.wav
Pre-gap length 0:00:02.42
Peak level 100.0 %
Extraction speed 2.1 X
Track quality 99.9 %
Test CRC 7CC09CCE
Copy CRC 7CC09CCE
Copy OK
Track 2
Filename f:\Users\Guillermo\Desktop\EAC convertidos\02 Pista02.wav
Pre-gap length 0:00:01.00
Peak level 39.6 %
Extraction speed 1.9 X
Track quality 100.0 %
Test CRC 56A29867
Copy CRC 56A29867
Copy OK
Track 3
Filename f:\Users\Guillermo\Desktop\EAC convertidos\03 Pista03.wav
Peak level 78.5 %
Extraction speed 2.7 X
Track quality 100.0 %
Test CRC 9F4BA467
Copy CRC 9F4BA467
Copy OK
Track 4
Filename f:\Users\Guillermo\Desktop\EAC convertidos\04 Pista04.wav
Peak level 75.6 %
Extraction speed 2.9 X
Track quality 100.0 %
Test CRC 5E085317
Copy CRC 5E085317
Copy OK
Track 5
Filename f:\Users\Guillermo\Desktop\EAC convertidos\05 Pista05.wav
Peak level 89.0 %
Extraction speed 2.5 X
Track quality 99.9 %
Test CRC 6BE8EDC5
Copy CRC 6BE8EDC5
Copy OK
Track 6
Filename f:\Users\Guillermo\Desktop\EAC convertidos\06 Pista06.wav
Peak level 88.2 %
Extraction speed 3.3 X
Track quality 100.0 %
Test CRC 9FF41A70
Copy CRC 9FF41A70
Copy OK
Track 7
Filename f:\Users\Guillermo\Desktop\EAC convertidos\07 Pista07.wav
Peak level 94.3 %
Extraction speed 2.9 X
Track quality 99.9 %
Test CRC 89DECA67
Copy CRC 89DECA67
Copy OK
Track 8
Filename f:\Users\Guillermo\Desktop\EAC convertidos\08 Pista08.wav
Pre-gap length 0:00:02.00
Peak level 79.8 %
Extraction speed 3.8 X
Track quality 100.0 %
Test CRC 37C7C16D
Copy CRC 37C7C16D
Copy OK
Track 9
Filename f:\Users\Guillermo\Desktop\EAC convertidos\09 Pista09.wav
Pre-gap length 0:00:02.00
Peak level 82.6 %
Extraction speed 3.8 X
Track quality 100.0 %
Test CRC 27F30BF4
Copy CRC 27F30BF4
Copy OK
No errors occurred
End of status report
==== Log checksum 94ADC9CA91AE5B0EA39CFFF662BEA7E9F57B87F7B150DD188EE677490085E482 ====

Треклист

Disc 1:
1. Overture (Sinfonia)
2. Nostra patria è il mondo intero
3. Vado in traccia d'una Zingara
4. Non si dà follia maggiore
5. Bella Italia, alfin ti miro
6. Un marito scimunito!
7. Siete dei Turchi
8. Il poeta ha ragione
9. Per piacere alla Signora
10. Gran maraviglie
Disc 2:
1. Perchè mai se son tradito
2. A proposito, amico
3. D'un bell'uso in Turchia
4. Credete alla femmine
5. Non v'e piacer perfetto
6. Ah guardate
7. Son la vite campo appassita
BONUS:
Duets of Nicola Ross-Lemeni and Virgina Zeani from Bellini's I Puritani and Donizetti's L'elisir d'Amore
Fulvio Vernizzi, Conductor,
Symphonic Orchestra of Torino della RAI
November, 10, 1958, Torino, Italy.



Показать сообщения:    

Текущее время: 08-Дек 12:53

Часовой пояс: UTC + 3


Вы не можете начинать темы
Вы не можете отвечать на сообщения
Вы не можете редактировать свои сообщения
Вы не можете удалять свои сообщения
Вы не можете голосовать в опросах
Вы не можете прикреплять файлы к сообщениям
Вы не можете скачивать файлы