Немецкое кино: от Калигари до Гитлера / Von Caligari zu Hitler: Das deutsche Kino im Zeita (Рюдигер Зухсланд / Rüdiger Suchsland) [2014, Документальный, биография, история, IPTVRip]


Статистика раздачи [Обновить пиров]
Размер:  1.66 GB   |    Зарегистрирован:  8 месяцев 19 дней   |    Скачан:  0 раз

Полного источника не было: Никогда

 
   
 
 
 

[Цитировать]

Немецкое кино: от Калигари до Гитлера / Von Caligari zu Hitler: Das deutsche Kino im Zeita
Дата/Год выпуска: 2014
Страна: Германия, Looks Filmproduktionen, Deutsche Kinemathek für Film und Fernsehen, Deutsches Filmmuseum Frankfurt See more
Жанр: Документальный, биография, история
Продолжительность: 01:50:11
Перевод: Одноголосый закадровый
Русские субтитры: нет
Оригинальная аудиодорожка: нет
Режиссер: Рюдигер Зухсланд / Rüdiger Suchsland
Телеканал: Doc 24
Описание: Фильм посвящён самому захватывающему периоду в немецком кинематографе 1920-х годов. В нем рассказывается про всем известные немецкие фильмы, про забытые и даже никогда не выходившие в свет. "Немецкое кино: от Калигари до Гитлера" показывался в программе кинофестиваля в Венеции 2014 году, а сейчас идет на фестивале независимого кино IndieLisboa в Лиссабоне.
Доп. информация: Выход релиза в Германии 28 мая 2015 года (Release Date: 28 May 2015 (Germany))
Сэмпл: http://multi-up.com/1046319
качество: IPTVRip
формат: AVI
Видео: 720x384 (1.88:1), 25 fps, XviD MPEG-4 ~1925 kbps avg, 0.28 bit/pixel
Аудио: 48 kHz, AC3 Dolby Digital, 2/0 (L,R) ch, ~224 kbps

MediaInfo

Общее
Полное имя : W:\Pshichko66\Na zapis'\Документальные фильмы\Nemeckoe kino. Ot Kaligari do Gitlera.avi
Формат : AVI
Формат/Информация : Audio Video Interleave
Размер файла : 1,66 Гбайт
Продолжительность : 1 ч. 50 м.
Общий поток : 2159 Кбит/сек
Программа кодирования : VirtualDubMod 1.5.10.2 (build 2540/release)
Библиотека кодирования : VirtualDubMod build 2540/release
Видео
Идентификатор : 0
Формат : MPEG-4 Visual
Профиль формата : Advanced Simple@L5
Параметр BVOP формата : 2
Параметр QPel формата : Нет
Параметр GMC формата : Без точки перехода
Параметр матрицы формата : Выборочная
Идентификатор кодека : XVID
Идентификатор кодека/Подсказка : XviD
Продолжительность : 1 ч. 50 м.
Битрейт : 1925 Кбит/сек
Ширина : 720 пикселей
Высота : 384 пикселя
Соотношение сторон : 1,85:1
Частота кадров : 25,000 кадров/сек
Цветовое пространство : YUV
Субдискретизация насыщенности : 4:2:0
Битовая глубина : 8 бит
Тип развёртки : Прогрессивная
Метод сжатия : С потерями
Бит/(Пиксели*Кадры) : 0.279
Размер потока : 1,48 Гбайт (89%)
Библиотека кодирования : XviD 73
Аудио
Идентификатор : 1
Формат : AC-3
Формат/Информация : Audio Coding 3
Расширение режима : CM (complete main)
Параметр Endianness формата : Big
Идентификатор кодека : 2000
Продолжительность : 1 ч. 50 м.
Вид битрейта : Постоянный
Битрейт : 224 Кбит/сек
Каналы : 2 канала
Расположение каналов : Front: L R
Частота : 48,0 КГц
Битовая глубина : 16 бит
Метод сжатия : С потерями
Размер потока : 177 Мбайт (10%)
Выравнивание : Разделение по промежуткам
Продолжительность промежутка : 40 мс. (1,00 видеокадр)
Время предзагрузки промежутка : 500 мс.
[teatrix.ru].t21063.torrent 
Торрент: Зарегистрирован [ 2016-03-20 00:54 ] · 23977967D036CFDF77B432BC108B81FE831A26B2

Скачать .torrent

Скачать

17 KB

Статус: проверено
Скачан: 0 раз
Размер: 1.66 GB
terms.php



Показать сообщения:    

Текущее время: 08-Дек 01:18

Часовой пояс: UTC + 3


Вы не можете начинать темы
Вы не можете отвечать на сообщения
Вы не можете редактировать свои сообщения
Вы не можете удалять свои сообщения
Вы не можете голосовать в опросах
Вы не можете прикреплять файлы к сообщениям
Вы можете скачивать файлы