(Classical) [LP] [24/48] Conductor Nikolai Golovanov / Дирижер Николай Голованов - Из Сокровищницы Мирового Исполнительского Искусства - 1980, FLAC (tracks+.cue)


Статистика раздачи [Обновить пиров]
Размер:  280 MB   |    Зарегистрирован:  8 месяцев 19 дней   |    Скачан:  0 раз

Полного источника не было: Никогда

 
   
 
 
 

[Цитировать]

Conductor Nikolai Golovanov / Дирижер Николай Голованов - Из Сокровищницы Мирового Исполнительского Искусства
Жанр: Classical
Носитель: LP
Год выпуска: 1980
Лейбл: Melodya (LSG)
Страна-производитель: USSR
Аудио кодек: FLAC
Тип рипа: tracks+.cue
Формат записи: 32/192
Формат раздачи: 24/48
Продолжительность: 51.28 min
Треклист:
S. Taneyev (1856-1915)
Ioann Damaskin
Cantata to the lyrics by A. K. Tolstoy, Op 1
01. Adagio ma non troppo
02. Andante sostenuto
03. Fuga
S. Rachmaninov (1873-1943)
04. Spring
Cantata to the lyrics By N. Nekrasov, Op 20
05. Symphonic Dances
Op 45
No. 2 Andante con moto (Tempo di valse)
Sergei Migai,baritone (1)
The USSR Radio Chorus
and Large Symphony Orchestra

Archive recordings 1947,1949
Источник оцифровки: автором раздачи
Код класса состояния винила: NM
Устройство воспроизведения: Электроника ЭП 017С
Головка звукоснимателя: Audio-Technica AT95
Предварительный усилитель: Бриг-001
АЦП: VIA HD audio device
Программа-оцифровщик: Izotope RX 4 Advanced
Обработка: Izotope RX 4 Advanced

Спектр+АЧХ+Уровень записи

DR=9

foobar2000 1.1.10 / Dynamic Range Meter 1.1.1
log date: 2015-05-01 13:06:14
--------------------------------------------------------------------------------
Analyzed: Nikolai Golovanov / The World's Leading Interpreters Of Music
--------------------------------------------------------------------------------
DR Peak RMS Duration Track
--------------------------------------------------------------------------------
DR10 -3.94 dB -19.07 dB 6:33 ?-Ioann Damaskin - Adagio ma non troppo
DR8 -3.05 dB -14.38 dB 11:26 ?-Ioann Damaskin - Andante sostenuto
DR8 -2.79 dB -13.68 dB 7:37 ?-Ioann Damaskin - Fuga
DR10 -1.81 dB -16.27 dB 16:46 ?-Spring
DR12 -1.82 dB -18.55 dB 9:05 ?-Symphonic Dances
--------------------------------------------------------------------------------
Number of tracks: 5
Official DR value: DR9
Samplerate: 48000 Hz
Channels: 1
Bits per sample: 24
Bitrate: 735 kbps
Codec: FLAC
================================================================================

Back, Inner & Disc

[teatrix.ru].t21065.torrent 
Торрент: Зарегистрирован [ 2016-03-20 00:54 ] · EA9CA151F1E227653CEAA08BBE5CCAEBFBD19343

Скачать .torrent

Скачать

12 KB

Статус: проверено
Скачан: 0 раз
Размер: 280 MB
terms.php



Быстрый ответ

Имя:

      
Для отправки сообщений необходимо включить JavaScript
Показать сообщения:    

Текущее время: 08-Дек 12:57

Часовой пояс: UTC + 3


Вы можете начинать темы
Вы можете отвечать на сообщения
Вы не можете редактировать свои сообщения
Вы не можете удалять свои сообщения
Вы не можете голосовать в опросах
Вы не можете прикреплять файлы к сообщениям
Вы можете скачивать файлы