[TR24][OF] Olafur (Ólafur) Arnalds & Alice Sara Ott - The Chopin Project - 2015 (Classical, Modern, Avant-Garde, Neo-classical, Ambient, Chamber Music)


Статистика раздачи [Обновить пиров]
Размер:  858 MB   |    Зарегистрирован:  8 месяцев 18 дней   |    Скачан:  0 раз

Полного источника не было: Никогда

 
   
 
 
 

[Цитировать]

Ólafur Arnalds & Alice Sara Ott
The Chopin Project
- Год издания: 2015
Жанр: Classical, Modern, Avant-Garde, Neo-classical, Ambient, Chamber Music
Издатель (лейбл): Mercury Classics
Продолжительность: 00:45:36
Наличие сканов: Sleeve, Digital Booklet- -
01. Verses (4:03)
02. Piano Sonata No.3 - Largo (9:17)
03. Nocturne in C sharp minor (feat. Mari Samuelsen) (4:24)
04. Reminiscence (4:28)
05. Nocturne in G minor (3:01)
06. Eyes Shut - Nocturne in C minor (6:41)
07. Written in Stone (3:27)
08. Letters Of A Traveller (4:17)
09. Prelude in D flat major 'Raindrop' (5:57)
-
Контейнер: FLAC (*.flac)
Тип рипа: tracks
Разрядность: 24bit / 96kHz
Количество каналов: 2.0
-О релизе
Award-winning young Icelandic pop/classical musician Ólafur Arnalds (celebrated composer of the score for TV series Broadchurch) has always loved the piano music of Frédéric Chopin, but he d grown weary of the uniform and standardized perfection of recordings. There has been no re-invention of the way Chopin s music has been presented since recording began, and I was longing for someone to come along and try something different. And one day, on a long flight to London, I thought: why don t I do it myself? And thus, in partnership with the acclaimed German-Japanese pianist Alice Sara Ott, THE CHOPIN PROJECT was born.
In order to achieve his aim, Arnalds developed an intimate, fragile and often charmingly imperfect sound using old/unusual/altered pianos captured on vintage recording equipment. He also employed various mixing techniques to re-enforce feelings of solitude or loneliness, and to create dreamlike ambient soundscapes. The listener should feel so close to the performer that he or she can hear each breath, or fragile touch of the keys.
Ott was instantly hooked by the project. I love playing on out-of-tune bar pianos and, in my opinion, Chopin s music fits very well to those circumstances, she says. He wrote for intimate spaces, for living rooms, and he loved to improvise and improvisation flourishes in these kind of venues, where lots of things are happening, and the performer can respond to them.
At the start of their project, Arnalds and Ott went piano hunting in Reykjavik, and found instruments with lots of personality . Some of them were prepared with felt to create otherworldly effects. Arnalds then recorded the pianist using vintage equipment, creating a very close-up, intimate setting for her performances. Sometimes there are creaks, breaths, jangling piano strings, rustles of paper in other words, the sounds of real life which are usually removed from Chopin recordings. The result after studio mixing - is a textured, multi-layered musical experience unlike any other.
Ólafur Arnalds, piano (on track 8)
Alice Sara Ott, piano
Mari Samuelsen, solo violin (on track 3)
String Quintet:
Viktor Orri Árnason
Björk Óskarsdóttir
Þórarinn Baldursson
Unnur Jónsdóttir
Hallgrímur Jónas Jensson
Synthesizers: Ólafur Arnalds
Tracks 1, 4, 6, 7, 8 composed and arranged by Ólafur Arnalds,
based on music of Frédéric Chopin
Tracks 1 and 7 based on Piano Sonata No. 3 in B Minor, op. 58: III. Largo
Track 4 based on Nocturne No. 20 in C Sharp Minor, op. posth.
Track 6 based on Nocturne No. 13 in C Minor, op. 48 No. 1.
Track 8 based on Nocturne No. 8 in D Flat Major, op. 27 No. 2.
Track 3 arranged by Nathan Milstein.
Recorded at E7 Studios and Harpa Concert Hall, Iceland
Recorded by Ólafur Arnalds, Finnur Hákonarson, Snorri Hallgrímsson and Bergur Þórisson
Mixed by Ólafur Arnalds
Mastered by Nils Frahm at Durton Studios
Executive Producer for Mercury Classics: Dr. Alexander Buhr

ОтчётыДинамический диапазон

foobar2000 1.2.2 / Dynamic Range Meter 1.1.1
log date: 2015-05-01 02:04:24
--------------------------------------------------------------------------------
Analyzed: Ólafur Arnalds & Alice Sara Ott / The Chopin Project
--------------------------------------------------------------------------------
DR Peak RMS Duration Track
--------------------------------------------------------------------------------
DR10 -0.30 dB -14.71 dB 4:03 ?-Verses
DR13 -0.30 dB -18.38 dB 9:17 ?-Piano Sonata No.3 - Largo
DR15 -0.30 dB -21.20 dB 4:24 ?-Nocturne in C sharp minor (feat. Mari Samuelsen)
DR10 -0.30 dB -15.47 dB 4:28 ?-Reminiscence
DR13 -6.18 dB -22.02 dB 3:01 ?-Nocturne in G minor
DR14 -0.30 dB -18.66 dB 6:41 ?-Eyes Shut - Nocturne in C minor
DR10 -0.30 dB -15.68 dB 3:27 ?-Written in Stone
DR10 -0.30 dB -16.20 dB 4:17 ?-Letters Of A Traveller
DR11 -0.30 dB -16.40 dB 5:57 ?-Prelude in D flat major 'Raindrop'
--------------------------------------------------------------------------------
Number of tracks: 9
Official DR value: DR12
Samplerate: 96000 Hz
Channels: 2
Bits per sample: 24
Bitrate: 2607 kbps
Codec: FLAC
================================================================================

Скриншот спектра частот

Доп. информация

При скачивании, если необходимо, переименуйте папку, в которой будет находиться альбомБольшая просьба к скачавшим поддерживать раздачу! Помогайте другим, ведь вам тоже может понадобиться помощь!Не забываем говорить "Спасибо"!Комментарии приветствуются!
[teatrix.ru].t21067.torrent 
Торрент: Зарегистрирован [ 2016-03-20 00:54 ] · F26494D372B989A067172A1A05613214108B8245

Скачать .torrent

Скачать

18 KB

Статус: проверено
Скачан: 0 раз
Размер: 858 MB
terms.php



Быстрый ответ

Имя:

      
Для отправки сообщений необходимо включить JavaScript
Показать сообщения:    

Текущее время: 07-Дек 00:54

Часовой пояс: UTC + 3


Вы можете начинать темы
Вы можете отвечать на сообщения
Вы не можете редактировать свои сообщения
Вы не можете удалять свои сообщения
Вы не можете голосовать в опросах
Вы не можете прикреплять файлы к сообщениям
Вы можете скачивать файлы