(Oratorio, Opera) Emilio de Cavalieri - Rappresentatione di Anima, et di Corpo/ Эмилио де Кавальери - Представление о душе и теле (Charles Mackerras; Wiener Kammerchor; Tatiana Troyanos, Hermann Prey), 1970 / 2007, FLAC (tracks+.cue), lossless


Статистика раздачи [Обновить пиров]
Размер:  419 MB   |    Зарегистрирован:  8 месяцев 18 дней   |    Скачан:  0 раз

Полного источника не было: Никогда

 
   
 
 
 

[Цитировать]

Emilio de' Cavalieri - Rappresentatione di Anima, et di Corpo / Эмилио де Кавальери - Представление о душе и теле (Charles Mackerras; Wiener Kammerchor; Ensemble Wolfgang von Karajan; Tatiana Troyanos, Hermann Prey)
Жанр: Oratorio, Opera
Страна-производитель диска: Германия
Год издания диска: 2007
Издатель (лейбл): Codex/Archiv Produktion
Дата записи: 1970
Аудиокодек: FLAC
Тип рипа: tracks+.cue
Битрейт аудио: lossless
Продолжительность: 79:47
Источник: релизер (Guillermo)
Исполнители:
Tatiana Troyanos - Anima,
Hermann Prey - Corpo,
Kurt Equiluz - Intelletto,
Herbert Lackner - Consiglio,
Theo Adam - Tempo,
Paul Esswood - Piacere,
Teresa Zylis-Gara - Angelo custode,
Edda Moser - Vita Mondana,
Ernst Gutstein - Mondo/Anima dannata,
Sylvia Geszty - Anima beata.
Charles Mackerras, Conductor,
Wiener Kammerchor,
Capella Academica Wien,
Ensemble Wolfgang von Karajan.

Лог создания рипа

Exact Audio Copy V1.0 beta 3 from 29. August 2011
EAC extraction logfile from 30. April 2015, 16:02
Capella Academica - Ens. Wolfgang von Karajan - Sir Charles Mackerras / Rappresentazione Di Anima Et Di Corpo
Used drive : HL-DT-STDVDRAM GH24NSC0 Adapter: 3 ID: 0
Read mode : Secure
Utilize accurate stream : Yes
Defeat audio cache : Yes
Make use of C2 pointers : No
Read offset correction : 6
Overread into Lead-In and Lead-Out : No
Fill up missing offset samples with silence : Yes
Delete leading and trailing silent blocks : No
Null samples used in CRC calculations : Yes
Used interface : Native Win32 interface for Win NT & 2000
Used output format : User Defined Encoder
Selected bitrate : 768 kBit/s
Quality : High
Add ID3 tag : No
Command line compressor : C:\Program Files (x86)\Exact Audio Copy\FLAC\FLAC.EXE
Additional command line options : -8 -V -T "ARTIST=%artist%" -T "TITLE=%title%" -T "ALBUM=%albumtitle%" -T "DATE=%year%" -T "TRACKNUMBER=%tracknr%" -T "GENRE=%genre%" -T "PERFORMER=%albuminterpret%" -T "COMPOSER=%composer%" %haslyrics%--tag-from-file=LYRICS="%lyricsfile%"%haslyrics% -T "ALBUMARTIST=%albumartist%" -T "DISCNUMBER=%cdnumber%" -T "TOTALDISCS=%totalcds%" -T "TOTALTRACKS=%numtracks%" -T "COMMENT=%comment%" %source% -o %dest%
TOC of the extracted CD
Track | Start | Length | Start sector | End sector
---------------------------------------------------------
1 | 0:00.00 | 3:09.35 | 0 | 14209
2 | 3:09.35 | 2:02.22 | 14210 | 23381
3 | 5:11.57 | 2:46.68 | 23382 | 35899
4 | 7:58.50 | 4:44.50 | 35900 | 57249
5 | 12:43.25 | 3:02.00 | 57250 | 70899
6 | 15:45.25 | 1:42.32 | 70900 | 78581
7 | 17:27.57 | 0:19.68 | 78582 | 80074
8 | 17:47.50 | 2:17.00 | 80075 | 90349
9 | 20:04.50 | 2:25.25 | 90350 | 101249
10 | 22:30.00 | 6:01.57 | 101250 | 128381
11 | 28:31.57 | 2:32.55 | 128382 | 139836
12 | 31:04.37 | 1:29.18 | 139837 | 146529
13 | 32:33.55 | 0:29.20 | 146530 | 148724
14 | 33:03.00 | 8:01.37 | 148725 | 184836
15 | 41:04.37 | 1:01.38 | 184837 | 189449
16 | 42:06.00 | 1:52.37 | 189450 | 197886
17 | 43:58.37 | 1:16.38 | 197887 | 203624
18 | 45:15.00 | 1:10.00 | 203625 | 208874
19 | 46:25.00 | 3:13.00 | 208875 | 223349
20 | 49:38.00 | 1:34.62 | 223350 | 230461
21 | 51:12.62 | 1:21.33 | 230462 | 236569
22 | 52:34.20 | 0:20.30 | 236570 | 238099
23 | 52:54.50 | 1:25.25 | 238100 | 244499
24 | 54:20.00 | 0:20.32 | 244500 | 246031
25 | 54:40.32 | 1:07.05 | 246032 | 251061
26 | 55:47.37 | 0:57.63 | 251062 | 255399
27 | 56:45.25 | 1:44.12 | 255400 | 263211
28 | 58:29.37 | 0:59.00 | 263212 | 267636
29 | 59:28.37 | 1:27.23 | 267637 | 274184
30 | 60:55.60 | 1:35.02 | 274185 | 281311
31 | 62:30.62 | 1:14.63 | 281312 | 286924
32 | 63:45.50 | 1:06.10 | 286925 | 291884
33 | 64:51.60 | 1:17.40 | 291885 | 297699
34 | 66:09.25 | 0:52.50 | 297700 | 301649
35 | 67:02.00 | 0:35.37 | 301650 | 304311
36 | 67:37.37 | 0:35.00 | 304312 | 306936
37 | 68:12.37 | 0:25.38 | 306937 | 308849
38 | 68:38.00 | 1:31.62 | 308850 | 315736
39 | 70:09.62 | 1:40.00 | 315737 | 323236
40 | 71:49.62 | 1:54.05 | 323237 | 331791
41 | 73:43.67 | 0:50.70 | 331792 | 335611
42 | 74:34.62 | 5:12.13 | 335612 | 359024
Track 1
Filename f:\Users\Guillermo\Desktop\EAC convertidos\01 Rappresentatione Di Anima Et Di Corpo - Il Tempo Il Tempo Fugge.wav
Pre-gap length 0:00:02.00
Peak level 67.1 %
Extraction speed 1.6 X
Track quality 100.0 %
Test CRC 642E191D
Copy CRC 642E191D
Copy OK
Track 2
Filename f:\Users\Guillermo\Desktop\EAC convertidos\02 Rappresentatioe Di Anima Et Di Corpo - Questa Vita Mortale.wav
Peak level 37.1 %
Extraction speed 1.5 X
Track quality 100.0 %
Test CRC 7B5CC4BE
Copy CRC 7B5CC4BE
Copy OK
Track 3
Filename f:\Users\Guillermo\Desktop\EAC convertidos\03 Rappresentatioe Di Anima Et Di Corpo - Ogni Cor Ama Il Bene.wav
Peak level 60.1 %
Extraction speed 1.7 X
Track quality 100.0 %
Test CRC A7E0731B
Copy CRC A7E0731B
Copy OK
Track 4
Filename f:\Users\Guillermo\Desktop\EAC convertidos\04 Rappresentatioe Di Anima Et Di Corpo - Mia, Che Peensi''.wav
Peak level 88.5 %
Extraction speed 2.0 X
Track quality 100.0 %
Test CRC 73EEA6D2
Copy CRC 73EEA6D2
Copy OK
Track 5
Filename f:\Users\Guillermo\Desktop\EAC convertidos\05 Rappresentatioe Di Anima Et Di Corpo - Il Ciel Clemente Ohn'hor Grazie E Favore.wav
Peak level 91.0 %
Extraction speed 2.0 X
Track quality 100.0 %
Test CRC 6EAA3EE5
Copy CRC 6EAA3EE5
Copy OK
Track 6
Filename f:\Users\Guillermo\Desktop\EAC convertidos\06 Rappresentatioe Di Anima Et Di Corpo - Sinfonia.wav
Peak level 79.3 %
Extraction speed 1.7 X
Track quality 100.0 %
Test CRC 79CF4615
Copy CRC 79CF4615
Copy OK
Track 7
Filename f:\Users\Guillermo\Desktop\EAC convertidos\07 Rappresentatioe Di Anima Et Di Corpo - Benedite Il Signor.wav
Peak level 96.0 %
Extraction speed 0.7 X
Track quality 100.0 %
Test CRC 24FBDA3B
Copy CRC 24FBDA3B
Copy OK
Track 8
Filename f:\Users\Guillermo\Desktop\EAC convertidos\08 Rappresentatioe Di Anima Et Di Corpo - La Nostra Vita In Terra.wav
Peak level 62.4 %
Extraction speed 1.5 X
Track quality 99.8 %
Test CRC 6BA5AEF3
Copy CRC 6BA5AEF3
Copy OK
Track 9
Filename f:\Users\Guillermo\Desktop\EAC convertidos\09 Rappresentatioe Di Anima Et Di Corpo - O Quanti Errori.wav
Peak level 94.3 %
Extraction speed 1.6 X
Track quality 99.8 %
Test CRC 954E8221
Copy CRC 954E8221
Copy OK
Track 10
Filename f:\Users\Guillermo\Desktop\EAC convertidos\10 Rappresentatioe Di Anima Et Di Corpo - Chi Gioia Vuol, Chi Brama.wav
Peak level 90.5 %
Extraction speed 2.6 X
Track quality 100.0 %
Test CRC EBA7A455
Copy CRC EBA7A455
Copy OK
Track 11
Filename f:\Users\Guillermo\Desktop\EAC convertidos\11 Rappresentatioe Di Anima Et Di Corpo - Non So S'e Stato Bene.wav
Peak level 78.6 %
Extraction speed 2.3 X
Track quality 100.0 %
Test CRC C14D880A
Copy CRC C14D880A
Copy OK
Track 12
Filename f:\Users\Guillermo\Desktop\EAC convertidos\12 Rappresentatioe Di Anima Et Di Corpo - Fortissimi Guerrieri.wav
Peak level 65.7 %
Extraction speed 1.4 X
Track quality 99.7 %
Test CRC F4E7802A
Copy CRC F4E7802A
Copy OK
Track 13
Filename f:\Users\Guillermo\Desktop\EAC convertidos\13 Rappresentatioe Di Anima Et Di Corpo - Altri Doman Le Fiere.wav
Peak level 95.8 %
Extraction speed 1.1 X
Track quality 100.0 %
Test CRC DF040949
Copy CRC DF040949
Copy OK
Track 14
Filename f:\Users\Guillermo\Desktop\EAC convertidos\14 Rappresentatioe Di Anima Et Di Corpo - Io Son Io Son Il Mond.wav
Peak level 94.3 %
Extraction speed 2.7 X
Track quality 99.9 %
Test CRC 8D5BED45
Copy CRC 8D5BED45
Copy OK
Track 15
Filename f:\Users\Guillermo\Desktop\EAC convertidos\15 Rappresentatioe Di Anima Et Di Corpo - O Miseri Amatori.wav
Peak level 67.7 %
Extraction speed 1.2 X
Track quality 99.6 %
Test CRC 5533BCAE
Copy CRC 5533BCAE
Copy OK
Track 16
Filename f:\Users\Guillermo\Desktop\EAC convertidos\16 Rappresentatioe Di Anima Et Di Corpo - Vita Mondana.wav
Peak level 71.8 %
Extraction speed 1.8 X
Track quality 99.8 %
Test CRC F3BF2534
Copy CRC F3BF2534
Copy OK
Track 17
Filename f:\Users\Guillermo\Desktop\EAC convertidos\17 Rappresentatioe Di Anima Et Di Corpo - Al Forte Vincitore.wav
Peak level 62.2 %
Extraction speed 2.0 X
Track quality 100.0 %
Test CRC 4BFB37B8
Copy CRC 4BFB37B8
Copy OK
Track 18
Filename f:\Users\Guillermo\Desktop\EAC convertidos\18 Rappresentatioe Di Anima Et Di Corpo - Ed Mundo.wav
Peak level 62.6 %
Extraction speed 2.0 X
Track quality 100.0 %
Test CRC 5DA09E69
Copy CRC 5DA09E69
Copy OK
Track 19
Filename f:\Users\Guillermo\Desktop\EAC convertidos\19 Rappresentatioe Di Anima Et Di Corpo - Dopo Brevi Sudori.wav
Peak level 79.0 %
Extraction speed 2.8 X
Track quality 100.0 %
Test CRC EC44B2FD
Copy CRC EC44B2FD
Copy OK
Track 20
Filename f:\Users\Guillermo\Desktop\EAC convertidos\20 Rappresentatioe Di Anima Et Di Corpo - Sinfonia.wav
Peak level 98.1 %
Extraction speed 2.3 X
Track quality 100.0 %
Test CRC DF13515C
Copy CRC DF13515C
Copy OK
Track 21
Filename f:\Users\Guillermo\Desktop\EAC convertidos\21 Rappresentatioe Di Anima Et Di Corpo - Nel Ciel Sempre E Allegrezza.wav
Peak level 80.2 %
Extraction speed 2.2 X
Track quality 100.0 %
Test CRC 8D08F430
Copy CRC 8D08F430
Copy OK
Track 22
Filename f:\Users\Guillermo\Desktop\EAC convertidos\22 Rappresentatioe Di Anima Et Di Corpo - Fugge Il Nocchier L' Infesta.wav
Peak level 78.7 %
Extraction speed 0.6 X
Track quality 98.9 %
Test CRC F351BF43
Copy CRC F351BF43
Copy OK
Track 23
Filename f:\Users\Guillermo\Desktop\EAC convertidos\23 Rappresentatioe Di Anima Et Di Corpo - Ne L'inferno Vi Stanno.wav
Peak level 72.7 %
Extraction speed 2.3 X
Track quality 100.0 %
Test CRC F18FE58B
Copy CRC F18FE58B
Copy OK
Track 24
Filename f:\Users\Guillermo\Desktop\EAC convertidos\24 Rappresentatioe Di Anima Et Di Corpo - Cerca Altri A Tutte L' Hore.wav
Peak level 88.3 %
Extraction speed 1.0 X
Track quality 100.0 %
Test CRC 5DBA4928
Copy CRC 5DBA4928
Copy OK
Track 25
Filename f:\Users\Guillermo\Desktop\EAC convertidos\25 Rappresentatioe Di Anima Et Di Corpo - Ne L' Inferno Vi Stanno.wav
Peak level 76.3 %
Extraction speed 2.1 X
Track quality 100.0 %
Test CRC 49A20A0F
Copy CRC 49A20A0F
Copy OK
Track 26
Filename f:\Users\Guillermo\Desktop\EAC convertidos\26 Rappresentatioe Di Anima Et Di Corpo - Il Fuoco Il Fuoco Eterno.wav
Peak level 75.6 %
Extraction speed 1.9 X
Track quality 100.0 %
Test CRC C00DD3AF
Copy CRC C00DD3AF
Copy OK
Track 27
Filename f:\Users\Guillermo\Desktop\EAC convertidos\27 Rappresentatioe Di Anima Et Di Corpo - Alme Ch' In Ciel Godere.wav
Peak level 64.0 %
Extraction speed 2.5 X
Track quality 100.0 %
Test CRC 8B811CA5
Copy CRC 8B811CA5
Copy OK
Track 28
Filename f:\Users\Guillermo\Desktop\EAC convertidos\28 Rappresentatioe Di Anima Et Di Corpo - O Gran Stupore.wav
Peak level 94.1 %
Extraction speed 2.0 X
Track quality 100.0 %
Test CRC 7B8C187C
Copy CRC 7B8C187C
Copy OK
Track 29
Filename f:\Users\Guillermo\Desktop\EAC convertidos\29 Rappresentatioe Di Anima Et Di Corpo - Anime Sfortunate.wav
Peak level 93.2 %
Extraction speed 1.7 X
Track quality 99.7 %
Test CRC 13554FB0
Copy CRC 13554FB0
Copy OK
Track 30
Filename f:\Users\Guillermo\Desktop\EAC convertidos\30 Rappresentatioe Di Anima Et Di Corpo - Eterna, Eterna Vita.wav
Peak level 57.3 %
Extraction speed 2.5 X
Track quality 100.0 %
Test CRC 01146605
Copy CRC 01146605
Copy OK
Track 31
Filename f:\Users\Guillermo\Desktop\EAC convertidos\31 Rappresentatioe Di Anima Et Di Corpo - O Gran Stupore.wav
Peak level 64.4 %
Extraction speed 2.3 X
Track quality 100.0 %
Test CRC 64567041
Copy CRC 64567041
Copy OK
Track 32
Filename f:\Users\Guillermo\Desktop\EAC convertidos\32 Rappresentatioe Di Anima Et Di Corpo - Alma La Pena E'l Danno.wav
Peak level 72.1 %
Extraction speed 2.2 X
Track quality 100.0 %
Test CRC 53A61C7E
Copy CRC 53A61C7E
Copy OK
Track 33
Filename f:\Users\Guillermo\Desktop\EAC convertidos\33 Rappresentatioe Di Anima Et Di Corpo - Alma La Vostra Gloria.wav
Peak level 56.5 %
Extraction speed 2.3 X
Track quality 100.0 %
Test CRC 5E2CAB05
Copy CRC 5E2CAB05
Copy OK
Track 34
Filename f:\Users\Guillermo\Desktop\EAC convertidos\34 Rappresentatioe Di Anima Et Di Corpo - Cognun Faccia Sempre Bene.wav
Peak level 74.0 %
Extraction speed 1.9 X
Track quality 100.0 %
Test CRC 6AF3FAFF
Copy CRC 6AF3FAFF
Copy OK
Track 35
Filename f:\Users\Guillermo\Desktop\EAC convertidos\35 Rappresentatioe Di Anima Et Di Corpo - Come Cervo Assetato.wav
Peak level 75.6 %
Extraction speed 1.6 X
Track quality 100.0 %
Test CRC CBC1E04E
Copy CRC CBC1E04E
Copy OK
Track 36
Filename f:\Users\Guillermo\Desktop\EAC convertidos\36 Rappresentatioe Di Anima Et Di Corpo - Gloria Sia A Dio Superno.wav
Peak level 77.7 %
Extraction speed 1.6 X
Track quality 100.0 %
Test CRC D100A0F6
Copy CRC D100A0F6
Copy OK
Track 37
Filename f:\Users\Guillermo\Desktop\EAC convertidos\37 Rappresentatioe Di Anima Et Di Corpo - Chiamiamo Tutto Il Mondo.wav
Peak level 40.8 %
Extraction speed 0.8 X
Track quality 99.1 %
Test CRC 023A16CC
Copy CRC 023A16CC
Copy OK
Track 38
Filename f:\Users\Guillermo\Desktop\EAC convertidos\38 Rappresentatioe Di Anima Et Di Corpo - O Signor Santo, E Vero.wav
Peak level 87.8 %
Extraction speed 2.6 X
Track quality 100.0 %
Test CRC 7C9BBC4F
Copy CRC 7C9BBC4F
Copy OK
Track 39
Filename f:\Users\Guillermo\Desktop\EAC convertidos\39 Rappresentatioe Di Anima Et Di Corpo - Voi Ch'ascotando State.wav
Peak level 89.2 %
Extraction speed 2.7 X
Track quality 100.0 %
Test CRC C9EFE176
Copy CRC C9EFE176
Copy OK
Track 40
Filename f:\Users\Guillermo\Desktop\EAC convertidos\40 Rappresentatioe Di Anima Et Di Corpo - Ogni Lingua, Ogni Core.wav
Peak level 79.1 %
Extraction speed 2.2 X
Track quality 99.8 %
Test CRC B8B3F7D3
Copy CRC B8B3F7D3
Copy OK
Track 41
Filename f:\Users\Guillermo\Desktop\EAC convertidos\41 Rappresentatioe Di Anima Et Di Corpo - Tenga Ognun Tenga Nel Core.wav
Peak level 90.4 %
Extraction speed 2.0 X
Track quality 100.0 %
Test CRC 8B209BFA
Copy CRC 8B209BFA
Copy OK
Track 42
Filename f:\Users\Guillermo\Desktop\EAC convertidos\42 Rappresentatioe Di Anima Et Di Corpo - Chiostri Altissimi E Stellati.wav
Peak level 97.1 %
Extraction speed 3.7 X
Track quality 100.0 %
Test CRC 35B7BF11
Copy CRC 35B7BF11
Copy OK
No errors occurred
End of status report
==== Log checksum A10A463027CDFCA8D200C19407209F7A30F6BDBA203728869AA77085791A82C4 ====

Содержание индексной карты (.CUE)

REM GENRE Classical
REM DATE 1970
REM DISCID 8312B32A
REM COMMENT "ExactAudioCopy v1.0b3"
FILE "01 Rappresentatione Di Anima Et Di Corpo - Il Tempo Il Tempo Fugge.wav" WAVE
TRACK 01 AUDIO
INDEX 01 00:00:00
FILE "02 Rappresentatioe Di Anima Et Di Corpo - Questa Vita Mortale.wav" WAVE
TRACK 02 AUDIO
INDEX 01 00:00:00
FILE "03 Rappresentatioe Di Anima Et Di Corpo - Ogni Cor Ama Il Bene.wav" WAVE
TRACK 03 AUDIO
INDEX 01 00:00:00
FILE "04 Rappresentatioe Di Anima Et Di Corpo - Mia, Che Peensi''.wav" WAVE
TRACK 04 AUDIO
INDEX 01 00:00:00
FILE "05 Rappresentatioe Di Anima Et Di Corpo - Il Ciel Clemente Ohn'hor Grazie E Favore.wav" WAVE
TRACK 05 AUDIO
INDEX 01 00:00:00
FILE "06 Rappresentatioe Di Anima Et Di Corpo - Sinfonia.wav" WAVE
TRACK 06 AUDIO
INDEX 01 00:00:00
FILE "07 Rappresentatioe Di Anima Et Di Corpo - Benedite Il Signor.wav" WAVE
TRACK 07 AUDIO
INDEX 01 00:00:00
FILE "08 Rappresentatioe Di Anima Et Di Corpo - La Nostra Vita In Terra.wav" WAVE
TRACK 08 AUDIO
INDEX 01 00:00:00
FILE "09 Rappresentatioe Di Anima Et Di Corpo - O Quanti Errori.wav" WAVE
TRACK 09 AUDIO
INDEX 01 00:00:00
FILE "10 Rappresentatioe Di Anima Et Di Corpo - Chi Gioia Vuol, Chi Brama.wav" WAVE
TRACK 10 AUDIO
INDEX 01 00:00:00
FILE "11 Rappresentatioe Di Anima Et Di Corpo - Non So S'e Stato Bene.wav" WAVE
TRACK 11 AUDIO
INDEX 01 00:00:00
FILE "12 Rappresentatioe Di Anima Et Di Corpo - Fortissimi Guerrieri.wav" WAVE
TRACK 12 AUDIO
INDEX 01 00:00:00
FILE "13 Rappresentatioe Di Anima Et Di Corpo - Altri Doman Le Fiere.wav" WAVE
TRACK 13 AUDIO
INDEX 01 00:00:00
FILE "14 Rappresentatioe Di Anima Et Di Corpo - Io Son Io Son Il Mond.wav" WAVE
TRACK 14 AUDIO
INDEX 01 00:00:00
FILE "15 Rappresentatioe Di Anima Et Di Corpo - O Miseri Amatori.wav" WAVE
TRACK 15 AUDIO
INDEX 01 00:00:00
FILE "16 Rappresentatioe Di Anima Et Di Corpo - Vita Mondana.wav" WAVE
TRACK 16 AUDIO
INDEX 01 00:00:00
FILE "17 Rappresentatioe Di Anima Et Di Corpo - Al Forte Vincitore.wav" WAVE
TRACK 17 AUDIO
INDEX 01 00:00:00
FILE "18 Rappresentatioe Di Anima Et Di Corpo - Ed Mundo.wav" WAVE
TRACK 18 AUDIO
INDEX 01 00:00:00
FILE "19 Rappresentatioe Di Anima Et Di Corpo - Dopo Brevi Sudori.wav" WAVE
TRACK 19 AUDIO
INDEX 01 00:00:00
FILE "20 Rappresentatioe Di Anima Et Di Corpo - Sinfonia.wav" WAVE
TRACK 20 AUDIO
INDEX 01 00:00:00
FILE "21 Rappresentatioe Di Anima Et Di Corpo - Nel Ciel Sempre E Allegrezza.wav" WAVE
TRACK 21 AUDIO
INDEX 01 00:00:00
FILE "22 Rappresentatioe Di Anima Et Di Corpo - Fugge Il Nocchier L' Infesta.wav" WAVE
TRACK 22 AUDIO
INDEX 01 00:00:00
FILE "23 Rappresentatioe Di Anima Et Di Corpo - Ne L'inferno Vi Stanno.wav" WAVE
TRACK 23 AUDIO
INDEX 01 00:00:00
FILE "24 Rappresentatioe Di Anima Et Di Corpo - Cerca Altri A Tutte L' Hore.wav" WAVE
TRACK 24 AUDIO
INDEX 01 00:00:00
FILE "25 Rappresentatioe Di Anima Et Di Corpo - Ne L' Inferno Vi Stanno.wav" WAVE
TRACK 25 AUDIO
INDEX 01 00:00:00
FILE "26 Rappresentatioe Di Anima Et Di Corpo - Il Fuoco Il Fuoco Eterno.wav" WAVE
TRACK 26 AUDIO
INDEX 01 00:00:00
FILE "27 Rappresentatioe Di Anima Et Di Corpo - Alme Ch' In Ciel Godere.wav" WAVE
TRACK 27 AUDIO
INDEX 01 00:00:00
FILE "28 Rappresentatioe Di Anima Et Di Corpo - O Gran Stupore.wav" WAVE
TRACK 28 AUDIO
INDEX 01 00:00:00
FILE "29 Rappresentatioe Di Anima Et Di Corpo - Anime Sfortunate.wav" WAVE
TRACK 29 AUDIO
INDEX 01 00:00:00
FILE "30 Rappresentatioe Di Anima Et Di Corpo - Eterna, Eterna Vita.wav" WAVE
TRACK 30 AUDIO
INDEX 01 00:00:00
FILE "31 Rappresentatioe Di Anima Et Di Corpo - O Gran Stupore.wav" WAVE
TRACK 31 AUDIO
INDEX 01 00:00:00
FILE "32 Rappresentatioe Di Anima Et Di Corpo - Alma La Pena E'l Danno.wav" WAVE
TRACK 32 AUDIO
INDEX 01 00:00:00
FILE "33 Rappresentatioe Di Anima Et Di Corpo - Alma La Vostra Gloria.wav" WAVE
TRACK 33 AUDIO
INDEX 01 00:00:00
FILE "34 Rappresentatioe Di Anima Et Di Corpo - Cognun Faccia Sempre Bene.wav" WAVE
TRACK 34 AUDIO
INDEX 01 00:00:00
FILE "35 Rappresentatioe Di Anima Et Di Corpo - Come Cervo Assetato.wav" WAVE
TRACK 35 AUDIO
INDEX 01 00:00:00
FILE "36 Rappresentatioe Di Anima Et Di Corpo - Gloria Sia A Dio Superno.wav" WAVE
TRACK 36 AUDIO
INDEX 01 00:00:00
FILE "37 Rappresentatioe Di Anima Et Di Corpo - Chiamiamo Tutto Il Mondo.wav" WAVE
TRACK 37 AUDIO
INDEX 01 00:00:00
FILE "38 Rappresentatioe Di Anima Et Di Corpo - O Signor Santo, E Vero.wav" WAVE
TRACK 38 AUDIO
INDEX 01 00:00:00
FILE "39 Rappresentatioe Di Anima Et Di Corpo - Voi Ch'ascotando State.wav" WAVE
TRACK 39 AUDIO
INDEX 01 00:00:00
FILE "40 Rappresentatioe Di Anima Et Di Corpo - Ogni Lingua, Ogni Core.wav" WAVE
TRACK 40 AUDIO
INDEX 01 00:00:00
FILE "41 Rappresentatioe Di Anima Et Di Corpo - Tenga Ognun Tenga Nel Core.wav" WAVE
TRACK 41 AUDIO
INDEX 01 00:00:00
FILE "42 Rappresentatioe Di Anima Et Di Corpo - Chiostri Altissimi E Stellati.wav" WAVE
TRACK 42 AUDIO
INDEX 01 00:00:00

Треклист

Act I:
1. Scene 1. No. 1. Il tempo, il tempo fugge
2. Scene 2. No. 2. Choro: Questa vita mortale
3. Scene 3. No. 3. Ogni cor ama il bene
4. Scene 4. Nos. 4-14. Corpo / Anima: Anima mia / Vorrei riposo / Ahi! chi mi da consiglio?
5. Scene 5. No. 15. Choro il ciel clemente
6. Scene 5. No. 15a. Sinfonia
Act II:
7. Scene 1. No. 16. Choro Benedite il Signor
8. Scene 2. No. 17. La nostra vita in terra
9. Scene 3. No. 18. Choro O quanti errori
10. Scene 4. Nos. 19-26. Piacere con due compagni / Corpo / Anima: Chi gioia vuol / Hor por che non vi aggrada
11. Scene 5. Nos. 27-28. Corpo / Anima (con Echo): Non so / Vò dimandarne al cielo
12. Scene 6. No. 29. Fortissimi guerrieri
13. Scene 6. No. 30. Choro Altri doma le fiere
14. Scene 7. Nos. 31-45. Io son, io son il Mondo - O come il mondo
15. Scene 7. No. 46. O miseri amatori
16. Scene 7. Nos. 47-51. Dispoglia anco costei - Via via, Mondo fallace
17. Scene 8. No. 52. Al forte vincitore
18. Scene 8. No. 53. Choro Venite al ciel, diletti
19. Scene 9. No. 54. Choro Dopò bravi sudori
20. Scene 9. No. 54a. Sinfonia
Act III:
21. Scene 1. Nos. 55-58. Salite pur al Cielo / Fuggite pur l'Inferno
22. Scene 1. No. 59. Choro Fugge il noccier l'infesta
23. Scene 1. Nos. 60-64. Nel ciel sempre è Allegrezza / Nel ciel sono i palazzi
24. Scene 1. No. 65. Choro Cerca altri a tutte
25. Scene 1. Nos. 66-68. Ne l'inferno vi stanno / Nel profondo è l'inverno
26. Scene 2. No. 69. Il fuoco / Al foco
27. Scene 3. Nos. 70-71. Alme ch' in ciel godete / Eterno, eterno Regno
28. Scene 3. No. 72. O gran stupore
29. Scene 4. Nos. 73-74. Anime sfortunate / Eterna, eterna morte
30. Scene 5. Nos. 75-76. Alme beate, e belle / Eterna, eterna vita
31. Scene 5. No. 77. Choro O gran stupore
32. Scene 6. Nos. 78-79. Alma la pena / Non mai
33. Scene 7. Nos. 80-81. Alme la vostra gloria / Sì, sempre, sempre
34. Scene 7. No. 82. Ognun faccia sempre bene
35. Scene 7. No. 83. Come cervo assertato
36. Scene 8. No. 84. Gloria sia a Dio superno
37. Scene 8. No. 85. Choro Chiamiamo tutto il mondo
38. Scene 9. No. 86. O Signor
39. Scene 9. Nos. 87-88. Voi ch'ascoltando state / Gratie, hinni, laudi
40. Scene 9. No. 89. Ogni lingua, ogni core
41. Scene 9. No. 90. Choro Tenga ognun
42. Scene 9. No. 91. Choro Chiostri altissimi, e stellati
[teatrix.ru].t21068.torrent 
Торрент: Зарегистрирован [ 2016-03-20 00:54 ] · 581672808A7BBDCBBDA3BE09FE138C0C923FA630

Скачать .torrent

Скачать

21 KB

Статус: проверено
Скачан: 0 раз
Размер: 419 MB
terms.php



Быстрый ответ

Имя:

      
Для отправки сообщений необходимо включить JavaScript
Показать сообщения:    

Текущее время: 07-Дек 15:34

Часовой пояс: UTC + 3


Вы можете начинать темы
Вы можете отвечать на сообщения
Вы не можете редактировать свои сообщения
Вы не можете удалять свои сообщения
Вы не можете голосовать в опросах
Вы не можете прикреплять файлы к сообщениям
Вы можете скачивать файлы