(Classical) Ottorino Respighi - Fontane di Roma; Pini di Roma; Feste Romane - Sao Paulo Symphony Orchestra, John Neschling - 2010, FLAC (image+.cue) lossless


 

[Цитировать]

Ottorino Respighi - Fontane di Roma; Pini di Roma; Feste Romane - São Paulo Symphony Orchestra, John Neschling
Жанр: Classical
Страна-производитель диска: Sweden
Год издания диска: 2010
Издатель (лейбл): BIS
Номер по каталогу: BIS-SACD-1720
Дата записи: 2008
Аудиокодек: FLAC
Тип рипа: image+.cue
Битрейт аудио: lossless
Продолжительность: 63:41
Источник: собственный рип
Наличие сканов в содержимом раздачи: да
Треклист:
Ottorino Respighi (1879–1936)
[1]-[4] Fontane di Roma (Fountains of Rome)
Symphonic Poem (1916)
[5]-[8] Pini di Roma (Pines of Rome)
Symphonic Poem (1924)
[9]-[12] Feste Romane (Roman Festivals)
Symphonic Poem (1928)
Исполнители:
São Paulo Symphony Orchestra (OSESP)
John Neschling
conductor

Лог создания рипа

Exact Audio Copy V1.0 beta 3 from 29. August 2011
EAC extraction logfile from 25. April 2015, 3:10
São Paulo Symphony Orchestra, John Neschling / Respighi - Roman Trilogy
Used drive : HL-DT-STDVDRAM GU70N Adapter: 0 ID: 0
Read mode : Secure
Utilize accurate stream : Yes
Defeat audio cache : Yes
Make use of C2 pointers : No
Read offset correction : 48
Overread into Lead-In and Lead-Out : No
Fill up missing offset samples with silence : Yes
Delete leading and trailing silent blocks : No
Null samples used in CRC calculations : Yes
Used interface : Native Win32 interface for Win NT & 2000
Used output format : User Defined Encoder
Selected bitrate : 128 kBit/s
Quality : High
Add ID3 tag : No
Command line compressor : C:\Program Files (x86)\Exact Audio Copy\Flac\flac.exe
Additional command line options : -V -8 -T "Date=%year%" -T "Genre=%genre%" %source%
TOC of the extracted CD
Track | Start | Length | Start sector | End sector
---------------------------------------------------------
1 | 0:00.00 | 4:54.21 | 0 | 22070
2 | 4:54.21 | 2:41.34 | 22071 | 34179
3 | 7:35.55 | 3:47.67 | 34180 | 51271
4 | 11:23.47 | 5:28.42 | 51272 | 75913
5 | 16:52.14 | 2:41.00 | 75914 | 87988
6 | 19:33.14 | 6:55.62 | 87989 | 119175
7 | 26:29.01 | 7:40.10 | 119176 | 153685
8 | 34:09.11 | 4:39.54 | 153686 | 174664
9 | 38:48.65 | 4:47.10 | 174665 | 196199
10 | 43:36.00 | 6:21.27 | 196200 | 224801
11 | 49:57.27 | 8:01.59 | 224802 | 260935
12 | 57:59.11 | 5:42.31 | 260936 | 286616
Range status and errors
Selected range
Filename C:\temp\BIS-SACD-1720 - Respighi - Roman Trilogy\Respighi - Roman Trilogy.wav
Peak level 99.2 %
Extraction speed 2.2 X
Range quality 100.0 %
Test CRC 9C5B1FBB
Copy CRC 9C5B1FBB
Copy OK
No errors occurred
AccurateRip summary
Track 1 accurately ripped (confidence 14) [0A872D2C] (AR v2)
Track 2 accurately ripped (confidence 14) [E48F1AD7] (AR v2)
Track 3 accurately ripped (confidence 14) [14B1BCED] (AR v2)
Track 4 accurately ripped (confidence 14) [2A56DDD9] (AR v2)
Track 5 accurately ripped (confidence 14) [7DB40CB8] (AR v2)
Track 6 accurately ripped (confidence 14) [BFBCBD2F] (AR v2)
Track 7 accurately ripped (confidence 14) [D6C1E2E1] (AR v2)
Track 8 accurately ripped (confidence 14) [DE4E0C7B] (AR v2)
Track 9 accurately ripped (confidence 14) [E034E702] (AR v2)
Track 10 accurately ripped (confidence 14) [60CC261D] (AR v2)
Track 11 accurately ripped (confidence 14) [DEC3353C] (AR v2)
Track 12 accurately ripped (confidence 14) [D7C3D3CF] (AR v2)
All tracks accurately ripped
End of status report
==== Log checksum D548E35EE155DE12818526E59FF61D340587C3CFE35A3497ACD34E60DE237902 ====



Показать сообщения:    

Текущее время: 06-Дек 22:57

Часовой пояс: UTC + 3


Вы не можете начинать темы
Вы не можете отвечать на сообщения
Вы не можете редактировать свои сообщения
Вы не можете удалять свои сообщения
Вы не можете голосовать в опросах
Вы не можете прикреплять файлы к сообщениям
Вы не можете скачивать файлы