(Classical) The Hilliard Ensemble · Medieval English Music: Masters of the 14th & 15th Centuries · 2009 (1983), FLAC (tracks+.cue) lossless


 

[Цитировать]

Medieval English Music
Masters of the 14th & 15th Centuries
Жанр: classical, страна-производитель диска: France
Год издания диска: 2009 (первое издание 1983), дата записи: сентябрь 1982
Издатель: Harmonia Mundi, номер по каталогу: HMA 1901106
Аудиокодек: FLAC, Тип рипа: tracks+.cue, Битрейт аудио: lossless
Продолжительность: 00:52:02, исполнители: The Hilliard Ensemble
Источник: скачано с what.cd, сканов в раздаче нет
Треклист:
Anonymes Du XIVe Siècle
01. Alleluia: Hic Est Vere Martir (4:01)
02. Singularis Laudis Digna (5:36)
03. Doleo Super Te (1:33)
04. Thomas Gemma Cantuarie (2:23)
05. Civitas Nusquam Conditur (2:25)
06. Tu Civium Primas (2:41)
07. Mater Christi Nobilis (1:33)
08. Ite Missa Est (1:30)
Anonymes Du XVe Siècle
09. Alleluia: A Newë Work (3:47)
10. Anna Mater Matris Christi* (6:01)
11. There Is No Rose (3:50)
12. Tota Pulcra Es Amica Mea** (4:08)
13. Marvel Not, Joseph (8:18)
14. Opotores Exquisiti (4:18)
* Композитор — John Plummer, ** Композитор — John Forest

Лог создания рипа

Exact Audio Copy V1.0 beta 3 from 29. August 2011
EAC extraction logfile from 24. January 2012, 19:19
Hilliard Ensemble / Medieval English Music
Used drive : Optiarc DVD RW AD-7170A Adapter: 3 ID: 0
Read mode : Secure
Utilize accurate stream : Yes
Defeat audio cache : Yes
Make use of C2 pointers : No
Read offset correction : 48
Overread into Lead-In and Lead-Out : No
Fill up missing offset samples with silence : Yes
Delete leading and trailing silent blocks : No
Null samples used in CRC calculations : Yes
Used interface : Native Win32 interface for Win NT & 2000
Gap handling : Appended to previous track
Used output format : User Defined Encoder
Selected bitrate : 1024 kBit/s
Quality : High
Add ID3 tag : No
Command line compressor : C:\Program Files\Exact Audio Copy\Flac\flac.exe
Additional command line options : -8 -V -T "ARTIST=%artist%" -T "TITLE=%title%" -T "ALBUM=%albumtitle%" -T "DATE=%year%" -T "TRACKNUMBER=%tracknr%" -T "GENRE=%genre%" -T "PERFORMER=%albuminterpret%" -T "COMPOSER=%composer%" %haslyrics%--tag-from-file=LYRICS="%lyricsfile%"%haslyrics% -T "ALBUMARTIST=%albumartist%" -T "ALBUM ARTIST=%albumartist%" -T "DISCNUMBER=%cdnumber%" -T "TOTALDISCS=%totalcds%" -T "TOTALTRACKS=%numtracks%" -T "COMMENT=%comment%" %source% -o %dest%
TOC of the extracted CD
Track | Start | Length | Start sector | End sector
---------------------------------------------------------
1 | 0:00.33 | 4:01.25 | 33 | 18132
2 | 4:01.58 | 5:35.50 | 18133 | 43307
3 | 9:37.33 | 1:32.50 | 43308 | 50257
4 | 11:10.08 | 2:22.70 | 50258 | 60977
5 | 13:33.03 | 2:24.42 | 60978 | 71819
6 | 15:57.45 | 2:40.38 | 71820 | 83857
7 | 18:38.08 | 1:33.12 | 83858 | 90844
8 | 20:11.20 | 1:29.38 | 90845 | 97557
9 | 21:40.58 | 3:47.12 | 97558 | 114594
10 | 25:27.70 | 6:01.13 | 114595 | 141682
11 | 31:29.08 | 3:50.25 | 141683 | 158957
12 | 35:19.33 | 4:08.00 | 158958 | 177557
13 | 39:27.33 | 8:17.50 | 177558 | 214882
14 | 47:45.08 | 4:17.50 | 214883 | 234207
Track 1
Filename D:\new rips\01 Alleluia - Hic Est Vere Martir.wav
Pre-gap length 0:00:02.44
Peak level 90.6 %
Extraction speed 2.6 X
Track quality 99.9 %
Test CRC 294C05C0
Copy CRC 294C05C0
Accurately ripped (confidence 5) [D832DDAD] (AR v1)
Copy OK
Track 2
Filename D:\new rips\02 Singularis Laudis Digna.wav
Pre-gap length 0:00:06.61
Peak level 68.0 %
Extraction speed 3.2 X
Track quality 99.9 %
Test CRC 7AF294E4
Copy CRC 7AF294E4
Accurately ripped (confidence 5) [6E4C3841] (AR v1)
Copy OK
Track 3
Filename D:\new rips\03 Doleo Super Te.wav
Pre-gap length 0:00:08.65
Peak level 30.5 %
Extraction speed 2.9 X
Track quality 100.0 %
Test CRC 97C0C4A1
Copy CRC 97C0C4A1
Accurately ripped (confidence 5) [B3B2DD14] (AR v1)
Copy OK
Track 4
Filename D:\new rips\04 Thomas Gemma Cantuarie.wav
Pre-gap length 0:00:05.58
Peak level 46.0 %
Extraction speed 3.4 X
Track quality 100.0 %
Test CRC 6EC6165B
Copy CRC 6EC6165B
Accurately ripped (confidence 5) [489C306E] (AR v1)
Copy OK
Track 5
Filename D:\new rips\05 Civitas Nusquam Conditur.wav
Pre-gap length 0:00:08.26
Peak level 28.1 %
Extraction speed 3.6 X
Track quality 100.0 %
Test CRC 1E865947
Copy CRC 1E865947
Accurately ripped (confidence 5) [0AA513B7] (AR v1)
Copy OK
Track 6
Filename D:\new rips\06 Tu Civium Primas.wav
Pre-gap length 0:00:04.12
Peak level 64.3 %
Extraction speed 3.8 X
Track quality 100.0 %
Test CRC 9488D431
Copy CRC 9488D431
Accurately ripped (confidence 5) [60FAC878] (AR v1)
Copy OK
Track 7
Filename D:\new rips\07 Mater Christi Nobilis.wav
Pre-gap length 0:00:05.64
Peak level 42.6 %
Extraction speed 3.5 X
Track quality 100.0 %
Test CRC 6BD902F3
Copy CRC 6BD902F3
Accurately ripped (confidence 5) [28D0DDAA] (AR v1)
Copy OK
Track 8
Filename D:\new rips\08 Ite Missa Est.wav
Pre-gap length 0:00:05.30
Peak level 76.7 %
Extraction speed 3.4 X
Track quality 100.0 %
Test CRC B421DEBB
Copy CRC B421DEBB
Accurately ripped (confidence 5) [7740C05C] (AR v1)
Copy OK
Track 9
Filename D:\new rips\09 Alleluia - A Newe Work.wav
Pre-gap length 0:00:08.50
Peak level 58.6 %
Extraction speed 4.4 X
Track quality 100.0 %
Test CRC 572D7BB0
Copy CRC 572D7BB0
Accurately ripped (confidence 5) [62716737] (AR v1)
Copy OK
Track 10
Filename D:\new rips\10 Anna Mater Matris Christi (John Plummer).wav
Pre-gap length 0:00:04.49
Peak level 81.8 %
Extraction speed 3.9 X
Track quality 99.9 %
Test CRC 4B5B86F9
Copy CRC 4B5B86F9
Accurately ripped (confidence 5) [0E0A0DB6] (AR v1)
Copy OK
Track 11
Filename D:\new rips\11 There Is No Rose.wav
Pre-gap length 0:00:04.66
Peak level 24.7 %
Extraction speed 4.9 X
Track quality 100.0 %
Test CRC 7B4F5EBC
Copy CRC 7B4F5EBC
Accurately ripped (confidence 5) [263D8973] (AR v1)
Copy OK
Track 12
Filename D:\new rips\12 Tota Pulcra Es Amica Mea.wav
Pre-gap length 0:00:08.92
Peak level 64.1 %
Extraction speed 4.5 X
Track quality 99.9 %
Test CRC 2CC28DCE
Copy CRC 2CC28DCE
Accurately ripped (confidence 5) [BEBB6C3B] (AR v1)
Copy OK
Track 13
Filename D:\new rips\13 Marvel Not, Joseph.wav
Pre-gap length 0:00:05.77
Peak level 42.6 %
Extraction speed 5.4 X
Track quality 99.9 %
Test CRC 5EE539AE
Copy CRC 5EE539AE
Accurately ripped (confidence 5) [87CBA435] (AR v1)
Copy OK
Track 14
Filename D:\new rips\14 Opotores Exquisiti.wav
Pre-gap length 0:00:10.44
Peak level 77.7 %
Extraction speed 5.7 X
Track quality 99.9 %
Test CRC 1E5576A2
Copy CRC 1E5576A2
Accurately ripped (confidence 5) [53981D7C] (AR v1)
Copy OK
All tracks accurately ripped
No errors occurred
End of status report
==== Log checksum AC2AE847956DACAF92F80FCB0B12168E28280B1C4290AA9CFFDAAD996B397932 ====
------------------------------------------------------------
Exact Audio Copy V1.0 beta 3 from 29. August 2011
EAC extraction logfile from 24. January 2012, 19:19
Hilliard Ensemble / Medieval English Music
Used drive : Optiarc DVD RW AD-7170A Adapter: 3 ID: 0
Read mode : Secure
Utilize accurate stream : Yes
Defeat audio cache : Yes
Make use of C2 pointers : No
Read offset correction : 48
Overread into Lead-In and Lead-Out : No
Fill up missing offset samples with silence : Yes
Delete leading and trailing silent blocks : No
Null samples used in CRC calculations : Yes
Used interface : Native Win32 interface for Win NT & 2000
Gap handling : Appended to previous track
Used output format : User Defined Encoder
Selected bitrate : 1024 kBit/s
Quality : High
Add ID3 tag : No
Command line compressor : C:\Program Files\Exact Audio Copy\Flac\flac.exe
Additional command line options : -8 -V -T "ARTIST=%artist%" -T "TITLE=%title%" -T "ALBUM=%albumtitle%" -T "DATE=%year%" -T "TRACKNUMBER=%tracknr%" -T "GENRE=%genre%" -T "PERFORMER=%albuminterpret%" -T "COMPOSER=%composer%" %haslyrics%--tag-from-file=LYRICS="%lyricsfile%"%haslyrics% -T "ALBUMARTIST=%albumartist%" -T "ALBUM ARTIST=%albumartist%" -T "DISCNUMBER=%cdnumber%" -T "TOTALDISCS=%totalcds%" -T "TOTALTRACKS=%numtracks%" -T "COMMENT=%comment%" %source% -o %dest%
TOC of the extracted CD
Track | Start | Length | Start sector | End sector
---------------------------------------------------------
1 | 0:00.33 | 4:01.25 | 33 | 18132
2 | 4:01.58 | 5:35.50 | 18133 | 43307
3 | 9:37.33 | 1:32.50 | 43308 | 50257
4 | 11:10.08 | 2:22.70 | 50258 | 60977
5 | 13:33.03 | 2:24.42 | 60978 | 71819
6 | 15:57.45 | 2:40.38 | 71820 | 83857
7 | 18:38.08 | 1:33.12 | 83858 | 90844
8 | 20:11.20 | 1:29.38 | 90845 | 97557
9 | 21:40.58 | 3:47.12 | 97558 | 114594
10 | 25:27.70 | 6:01.13 | 114595 | 141682
11 | 31:29.08 | 3:50.25 | 141683 | 158957
12 | 35:19.33 | 4:08.00 | 158958 | 177557
13 | 39:27.33 | 8:17.50 | 177558 | 214882
14 | 47:45.08 | 4:17.50 | 214883 | 234207
Track 1
Filename D:\new rips\01 Alleluia - Hic Est Vere Martir.wav
Pre-gap length 0:00:02.44
Peak level 90.6 %
Extraction speed 2.6 X
Track quality 99.9 %
Test CRC 294C05C0
Copy CRC 294C05C0
Accurately ripped (confidence 5) [D832DDAD] (AR v1)
Copy OK
Track 2
Filename D:\new rips\02 Singularis Laudis Digna.wav
Pre-gap length 0:00:06.61
Peak level 68.0 %
Extraction speed 3.2 X
Track quality 99.9 %
Test CRC 7AF294E4
Copy CRC 7AF294E4
Accurately ripped (confidence 5) [6E4C3841] (AR v1)
Copy OK
Track 3
Filename D:\new rips\03 Doleo Super Te.wav
Pre-gap length 0:00:08.65
Peak level 30.5 %
Extraction speed 2.9 X
Track quality 100.0 %
Test CRC 97C0C4A1
Copy CRC 97C0C4A1
Accurately ripped (confidence 5) [B3B2DD14] (AR v1)
Copy OK
Track 4
Filename D:\new rips\04 Thomas Gemma Cantuarie.wav
Pre-gap length 0:00:05.58
Peak level 46.0 %
Extraction speed 3.4 X
Track quality 100.0 %
Test CRC 6EC6165B
Copy CRC 6EC6165B
Accurately ripped (confidence 5) [489C306E] (AR v1)
Copy OK
Track 5
Filename D:\new rips\05 Civitas Nusquam Conditur.wav
Pre-gap length 0:00:08.26
Peak level 28.1 %
Extraction speed 3.6 X
Track quality 100.0 %
Test CRC 1E865947
Copy CRC 1E865947
Accurately ripped (confidence 5) [0AA513B7] (AR v1)
Copy OK
Track 6
Filename D:\new rips\06 Tu Civium Primas.wav
Pre-gap length 0:00:04.12
Peak level 64.3 %
Extraction speed 3.8 X
Track quality 100.0 %
Test CRC 9488D431
Copy CRC 9488D431
Accurately ripped (confidence 5) [60FAC878] (AR v1)
Copy OK
Track 7
Filename D:\new rips\07 Mater Christi Nobilis.wav
Pre-gap length 0:00:05.64
Peak level 42.6 %
Extraction speed 3.5 X
Track quality 100.0 %
Test CRC 6BD902F3
Copy CRC 6BD902F3
Accurately ripped (confidence 5) [28D0DDAA] (AR v1)
Copy OK
Track 8
Filename D:\new rips\08 Ite Missa Est.wav
Pre-gap length 0:00:05.30
Peak level 76.7 %
Extraction speed 3.4 X
Track quality 100.0 %
Test CRC B421DEBB
Copy CRC B421DEBB
Accurately ripped (confidence 5) [7740C05C] (AR v1)
Copy OK
Track 9
Filename D:\new rips\09 Alleluia - A Newe Work.wav
Pre-gap length 0:00:08.50
Peak level 58.6 %
Extraction speed 4.4 X
Track quality 100.0 %
Test CRC 572D7BB0
Copy CRC 572D7BB0
Accurately ripped (confidence 5) [62716737] (AR v1)
Copy OK
Track 10
Filename D:\new rips\10 Anna Mater Matris Christi (John Plummer).wav
Pre-gap length 0:00:04.49
Peak level 81.8 %
Extraction speed 3.9 X
Track quality 99.9 %
Test CRC 4B5B86F9
Copy CRC 4B5B86F9
Accurately ripped (confidence 5) [0E0A0DB6] (AR v1)
Copy OK
Track 11
Filename D:\new rips\11 There Is No Rose.wav
Pre-gap length 0:00:04.66
Peak level 24.7 %
Extraction speed 4.9 X
Track quality 100.0 %
Test CRC 7B4F5EBC
Copy CRC 7B4F5EBC
Accurately ripped (confidence 5) [263D8973] (AR v1)
Copy OK
Track 12
Filename D:\new rips\12 Tota Pulcra Es Amica Mea.wav
Pre-gap length 0:00:08.92
Peak level 64.1 %
Extraction speed 4.5 X
Track quality 99.9 %
Test CRC 2CC28DCE
Copy CRC 2CC28DCE
Accurately ripped (confidence 5) [BEBB6C3B] (AR v1)
Copy OK
Track 13
Filename D:\new rips\13 Marvel Not, Joseph.wav
Pre-gap length 0:00:05.77
Peak level 42.6 %
Extraction speed 5.4 X
Track quality 99.9 %
Test CRC 5EE539AE
Copy CRC 5EE539AE
Accurately ripped (confidence 5) [87CBA435] (AR v1)
Copy OK
Track 14
Filename D:\new rips\14 Opotores Exquisiti.wav
Pre-gap length 0:00:10.44
Peak level 77.7 %
Extraction speed 5.7 X
Track quality 99.9 %
Test CRC 1E5576A2
Copy CRC 1E5576A2
Accurately ripped (confidence 5) [53981D7C] (AR v1)
Copy OK
All tracks accurately ripped
No errors occurred
End of status report
==== Log checksum AC2AE847956DACAF92F80FCB0B12168E28280B1C4290AA9CFFDAAD996B397932 ====

Содержание индексной карты (.CUE)

REM DATE 2009
REM DISCID BA0C320E
REM COMMENT "ExactAudioCopy v1.0b3"
CATALOG 0000000000000
PERFORMER "The Hilliard Ensemble"
TITLE "Medieval English Music · Masters of the 14th & 15th Centuries"
FILE "01. Alleluia. Hic Est Vere Martir.wav" WAVE
TRACK 01 AUDIO
TITLE "Alleluia: Hic Est Vere Martir"
PERFORMER "The Hilliard Ensemble"
ISRC 000000000000
PREGAP 00:00:33
INDEX 01 00:00:00
TRACK 02 AUDIO
TITLE "Singularis Laudis Digna"
PERFORMER "The Hilliard Ensemble"
ISRC 000000000000
INDEX 00 03:54:54
FILE "02. Singularis Laudis Digna.wav" WAVE
INDEX 01 00:00:00
TRACK 03 AUDIO
TITLE "Doleo Super Te"
PERFORMER "The Hilliard Ensemble"
ISRC 000000000000
INDEX 00 05:27:01
FILE "03. Doleo Super Te.wav" WAVE
INDEX 01 00:00:00
TRACK 04 AUDIO
TITLE "Thomas Gemma Cantuarie"
PERFORMER "The Hilliard Ensemble"
ISRC 000000000000
INDEX 00 01:27:06
FILE "04. Thomas Gemma Cantuarie.wav" WAVE
INDEX 01 00:00:00
TRACK 05 AUDIO
TITLE "Civitas Nusquam Conditur"
PERFORMER "The Hilliard Ensemble"
ISRC 000000000000
INDEX 00 02:14:50
FILE "05. Civitas Nusquam Conditur.wav" WAVE
INDEX 01 00:00:00
TRACK 06 AUDIO
TITLE "Tu Civium Primas"
PERFORMER "The Hilliard Ensemble"
ISRC 000000000000
INDEX 00 02:20:33
FILE "06. Tu Civium Primas.wav" WAVE
INDEX 01 00:00:00
TRACK 07 AUDIO
TITLE "Mater Christi Nobilis"
PERFORMER "The Hilliard Ensemble"
ISRC 000000000000
INDEX 00 02:34:65
FILE "07. Mater Christi Nobilis.wav" WAVE
INDEX 01 00:00:00
TRACK 08 AUDIO
TITLE "Ite Missa Est"
PERFORMER "The Hilliard Ensemble"
ISRC 000000000000
INDEX 00 01:27:64
FILE "08. Ite Missa Est.wav" WAVE
INDEX 01 00:00:00
TRACK 09 AUDIO
TITLE "Alleluia: A Newë Work"
PERFORMER "The Hilliard Ensemble"
ISRC 000000000000
INDEX 00 01:21:00
FILE "09. Alleluia. A Newë Work.wav" WAVE
INDEX 01 00:00:00
TRACK 10 AUDIO
TITLE "Anna Mater Matris Christi"
PERFORMER "The Hilliard Ensemble"
ISRC 000000000000
INDEX 00 03:42:50
FILE "10. Anna Mater Matris Christi.wav" WAVE
INDEX 01 00:00:00
TRACK 11 AUDIO
TITLE "There Is No Rose"
PERFORMER "The Hilliard Ensemble"
ISRC 000000000000
INDEX 00 05:56:38
FILE "11. There Is No Rose.wav" WAVE
INDEX 01 00:00:00
TRACK 12 AUDIO
TITLE "Tota Pulcra Es Amica Mea"
PERFORMER "The Hilliard Ensemble"
ISRC 000000000000
INDEX 00 03:41:31
FILE "12. Tota Pulcra Es Amica Mea.wav" WAVE
INDEX 01 00:00:00
TRACK 13 AUDIO
TITLE "Marvel Not, Joseph"
PERFORMER "The Hilliard Ensemble"
ISRC 000000000000
INDEX 00 04:02:17
FILE "13. Marvel Not, Joseph.wav" WAVE
INDEX 01 00:00:00
TRACK 14 AUDIO
TITLE "Opotores Exquisiti"
PERFORMER "The Hilliard Ensemble"
ISRC 000000000000
INDEX 00 08:07:17
FILE "14. Opotores Exquisiti.wav" WAVE
INDEX 01 00:00:00



Показать сообщения:    

Текущее время: 10-Дек 13:50

Часовой пояс: UTC + 3


Вы не можете начинать темы
Вы не можете отвечать на сообщения
Вы не можете редактировать свои сообщения
Вы не можете удалять свои сообщения
Вы не можете голосовать в опросах
Вы не можете прикреплять файлы к сообщениям
Вы не можете скачивать файлы