(Classical) [LP] [24/48] (Classical) [LP] [24/48] Conductor Samuil Samosud / Дирижер Самуил Самосуд - Из Сокровищницы Мирового Исполнительского Искусства - 1980, FLAC (tracks+.cue)


Статистика раздачи [Обновить пиров]
Размер:  235 MB   |    Зарегистрирован:  8 месяцев 22 дня   |    Скачан:  0 раз

Полного источника не было: Никогда

 
   
 
 
 

[Цитировать]

(Classical) [LP] [24/48] Conductor Samuil Samosud / Дирижер Самуил Самосуд - Из Сокровищницы Мирового Исполнительского Искусства
Жанр: Classical
Носитель: LP
Год выпуска: 1980
Лейбл: Melodya (LSG)
Страна-производитель: USSR
Аудио кодек: FLAC
Тип рипа: tracks+.cue
Формат записи: 32/192
Формат раздачи: 24/48
Продолжительность: 44.29 min
Треклист:
E. Napravnik
01. Ukrainian Cossack Dance
A. Rubinstain
02. Valse-Caprice
A. Glazunov
03. Concert Waltz, Op. 47
M. Oginski
04. Polonaise
L. Beethoven
05. King Stephan, overture from incidental music to A. Kotzebue's like-named play. Op. 117
C. Weber
06. Invitation to the Dance
The USSR Academic Symphony Orchestra (1,5)
USSR TV and Radio
Large Symphony Orchestra (2,3)
USSR Radio Orchestra (4)
Bolshoi Theatre Orchestra (6)

Источник оцифровки: автором раздачи
Код класса состояния винила: NM
Устройство воспроизведения: Электроника ЭП 017С
Головка звукоснимателя: Audio-Technica AT95
Предварительный усилитель: Бриг-001
АЦП: VIA HD audio device
Программа-оцифровщик: Izotope RX 4 Advanced
Обработка: Izotope RX 4 Advanced

Спектр+АЧХ+Уровень записи

DR=12

foobar2000 1.1.10 / Dynamic Range Meter 1.1.1
log date: 2015-05-02 20:58:50
--------------------------------------------------------------------------------
Analyzed: Samuil Samosud / The World's Leading Interpreters Of Music
--------------------------------------------------------------------------------
DR Peak RMS Duration Track
--------------------------------------------------------------------------------
DR13 -5.12 dB -21.70 dB 8:52 ?-Ukrainian Cossack Dance
DR11 -4.73 dB -19.62 dB 6:11 ?-Valse-Caprice
DR11 -4.95 dB -20.43 dB 8:28 ?-Concert Waltz, Op. 47
DR10 -4.85 dB -17.59 dB 3:50 ?-Polonaise
DR13 -6.06 dB -23.09 dB 7:46 ?-King Stephan, overture from incidental music to A. Kotzebue's like-named play. Op. 117
DR13 -5.64 dB -23.73 dB 9:22 ?-Invitation to the Dance
--------------------------------------------------------------------------------
Number of tracks: 6
Official DR value: DR12
Samplerate: 48000 Hz
Channels: 1
Bits per sample: 24
Bitrate: 679 kbps
Codec: FLAC
================================================================================

Back, Inner & Disc

[teatrix.ru].t21073.torrent 
Торрент: Зарегистрирован [ 2016-03-20 00:54 ] · DF45A8EA0D03634036EBEA15EAC49BA64CD448E4

Скачать .torrent

Скачать

20 KB

Статус: проверено
Скачан: 0 раз
Размер: 235 MB
terms.php



Быстрый ответ

Имя:

      
Для отправки сообщений необходимо включить JavaScript
Показать сообщения:    

Текущее время: 11-Дек 03:21

Часовой пояс: UTC + 3


Вы можете начинать темы
Вы можете отвечать на сообщения
Вы не можете редактировать свои сообщения
Вы не можете удалять свои сообщения
Вы не можете голосовать в опросах
Вы не можете прикреплять файлы к сообщениям
Вы можете скачивать файлы