Электрик бугалу: Потрясающая нерассказанная история Кэннон-филмз / Electric Boogaloo: The Wild, Untold Story of Cannon Films (Марк Хартли / Mark Hartle) [2014, Документальный фильм, SATRip]


Статистика раздачи [Обновить пиров]
Размер:  851 MB   |    Зарегистрирован:  8 месяцев 15 дней   |    Скачан:  1 раз

Полного источника не было: 4 месяца 19 дней

 
   
 
 
 

[Цитировать]

Электрик бугалу: Потрясающая нерассказанная история Кэннон-филмз / Electric Boogaloo: The Wild, Untold Story of Cannon Films
Дата/Год выпуска: 2014
Страна: Австралия (при участии США, Великобритании и Израи
Жанр: Документальный фильм
Продолжительность: 01:41:57
Перевод: Субтитры
Русские субтитры: есть
Формат субтитров: hardsub (неотключаемые)
Оригинальная аудиодорожка: английский
Режиссер: Марк Хартли / Mark Hartle
Описание: Полнометражная документальная лента о бурной, полной взлетов и падений истории киностудии "Кэннон-филмз" Менахема Голана и Йорама Глобуса. На студии были сняты такие известные ленты, как Жажда смерти (2, 3), Сахара, Без вести пропавшие, Жизненная сила, Вторжение в США, Копи царя Соломона, Поезд-беглец (Андрея Кончаловского), Кобра, Американский ниндзя и многие другие ...
SATRip от : Твид
Доп. информация: Любезно предоставлено клубом Fenix
Сэмпл: http://multi-up.com/1046566
качество: SATRip
формат: AVI
Видео: XviD, 1032 kb/s, 704x528, 25 fps, 0.111 bits/pixel
Аудио: 0x0055(MP3) ID'd as MPEG-1 Layer 3, 128 kb/s (2/ch, stereo) CBR, 48000 Hz - Английский

MediaInfo

Общее
Полное имя : D:\Fillms-1\istorija Ke`nnon-filmz.SAT-rip.by.Твид.fenixclub.avi
Формат : AVI
Формат/Информация : Audio Video Interleave
Размер файла : 851 Мбайт
Продолжительность : 1 ч. 41 м.
Общий поток : 1166 Кбит/сек
Программа кодирования : VirtualDubMod 1.5.10.2 (build 2540/release)
Библиотека кодирования : VirtualDub build 30009/release
Видео
Идентификатор : 0
Формат : MPEG-4 Visual
Профиль формата : Simple@L3
Параметр BVOP формата : 2
Параметр QPel формата : Нет
Параметр GMC формата : Без точки перехода
Параметр матрицы формата : Default (H.263)
Идентификатор кодека : XVID
Идентификатор кодека/Подсказка : XviD
Продолжительность : 1 ч. 41 м.
Битрейт : 1029 Кбит/сек
Ширина : 704 пикселя
Высота : 528 пикселей
Соотношение сторон : 4:3
Частота кадров : 25,000 кадров/сек
Цветовое пространство : YUV
Субдискретизация насыщенности : 4:2:0
Битовая глубина : 8 бит
Тип развёртки : Прогрессивная
Метод сжатия : С потерями
Бит/(Пиксели*Кадры) : 0.111
Размер потока : 750 Мбайт (88%)
Библиотека кодирования : XviD 1.0.0 RC4 (Hola) (UTC 2004-04-05)
Аудио
Идентификатор : 1
Формат : MPEG Audio
Версия формата : Version 1
Профиль формата : Layer 3
Режим : Joint stereo
Расширение режима : MS Stereo
Идентификатор кодека : 55
Идентификатор кодека/Подсказка : MP3
Продолжительность : 1 ч. 41 м.
Вид битрейта : Постоянный
Битрейт : 128 Кбит/сек
Каналы : 2 канала
Частота : 48,0 КГц
Метод сжатия : С потерями
Размер потока : 93,3 Мбайт (11%)
Выравнивание : Разделение по промежуткам
Продолжительность промежутка : 40 мс. (1,00 видеокадр)
Время предзагрузки промежутка : 500 мс.

Скриншоты

[teatrix.ru].t21074.torrent 
Торрент: Зарегистрирован [ 2016-03-20 00:54 ] · E5F9E1B499B66DB53840ED2379CB7AB627240012

Скачать .torrent

Скачать

17 KB

Статус: проверено
Скачан: 1 раз
Размер: 851 MB
terms.php



Показать сообщения:    

Текущее время: 04-Дек 06:51

Часовой пояс: UTC + 3


Вы не можете начинать темы
Вы не можете отвечать на сообщения
Вы не можете редактировать свои сообщения
Вы не можете удалять свои сообщения
Вы не можете голосовать в опросах
Вы не можете прикреплять файлы к сообщениям
Вы можете скачивать файлы