Никита Пресняков. Вычислить путь звезды (ТВ Центр) [2015, Личности и кумиры, DVB]


Статистика раздачи [Обновить пиров]
Размер:  1.54 GB   |    Зарегистрирован:  8 месяцев 14 дней   |    Скачан:  0 раз

Полного источника не было: Никогда

 
   
 
 
 

[Цитировать]

Никита Пресняков. Вычислить путь звезды
Дата/Год выпуска: 2015
Страна: Россия
Жанр: Личности и кумиры
Продолжительность: 01:01:33
Перевод: Не требуется
Русские субтитры: нет
Режиссер: ТВ Центр
Телеканал: ТВ Центр–International
Описание: Он родился в самой звёздной семье российского шоу-бизнеса, став первым наследником знаменитого творческого семейства. Сейчас имя самого Никиты Преснякова становится настолько популярным, что он вполне может конкурировать с именами своих прославленных родственников. О музыканте, клипмейкере, талантливом артисте рассказывают его родные и близкие.
Доп. информация: Участники: Никита Пресняков, Алла Пугачёва, Филипп Киркоров, Владимир Пресняков мл., Владимир Пресняков ст., Кристина Орбакайте и другие.
качество: DVB
формат: MPG
Видео: MPEG2, 720x576 (16:9), 3400 Кбит/сек, 25,000 кадров/сек
Аудио: MP2, 128 Кбит/сек, 48,0 КГц, 2 канала

MediaInfo

Общее
Полное имя : Никита Пресняков. Вычислить путь звезды.mpg
Формат : MPEG-PS
Размер файла : 1,54 Гбайт
Продолжительность : 1 ч. 1 м.
Общий поток : 3574 Кбит/сек
Видео
Идентификатор : 224 (0xE0)
Формат : MPEG Video
Версия формата : Version 2
Профиль формата : Main@Main
Параметр BVOP формата : Да
Параметр матрицы формата : Выборочная
Параметр GOP формата : M=3, N=24
Продолжительность : 1 ч. 1 м.
Битрейт : 3400 Кбит/сек
Ширина : 720 пикселей
Высота : 576 пикселей
Соотношение сторон : 16:9
Частота кадров : 25,000 кадров/сек
Стандарт вещания : PAL
Цветовое пространство : YUV
Субдискретизация насыщенности : 4:2:0
Битовая глубина : 8 бит
Тип развёртки : Чересстрочная
Порядок развёртки : Верхнее поле первое
Метод сжатия : С потерями
Бит/(Пиксели*Кадры) : 0.328
Временной код первого кадра : 00:00:00:00
Оригинал временного кода : Group of pictures header
Размер потока : 1,45 Гбайт (94%)
Аудио
Идентификатор : 192 (0xC0)
Формат : MPEG Audio
Версия формата : Version 1
Профиль формата : Layer 2
Продолжительность : 1 ч. 1 м.
Вид битрейта : Постоянный
Битрейт : 128 Кбит/сек
Каналы : 2 канала
Частота : 48,0 КГц
Метод сжатия : С потерями
Задержка видео : 15 мс.
Размер потока : 56,4 Мбайт (4%)

Скриншоты

[teatrix.ru].t21076.torrent 
Торрент: Зарегистрирован [ 2016-03-20 00:53 ] · 94C46B31F5C453E3594FC12566515FAF6831ED5C

Скачать .torrent

Скачать

16 KB

Статус: проверено
Скачан: 0 раз
Размер: 1.54 GB
terms.php



Быстрый ответ

Имя:

      
Для отправки сообщений необходимо включить JavaScript
Показать сообщения:    

Текущее время: 03-Дек 01:21

Часовой пояс: UTC + 3


Вы можете начинать темы
Вы можете отвечать на сообщения
Вы не можете редактировать свои сообщения
Вы не можете удалять свои сообщения
Вы не можете голосовать в опросах
Вы не можете прикреплять файлы к сообщениям
Вы можете скачивать файлы