(Classical) The Hilliard Ensemble · English And Italian Renaissance Madrigals · 1999, FLAC (tracks+.cue) lossless


 

[Цитировать]

English And Italian
Renaissance Madrigals

Жанр: classical
Страна-производитель диска: Франция
Год издания диска: 1999
Издатель: Virgin Veritas
Номер по каталогу: VBD 5 61671 2
Дата записи: май 1987 (диск II), апрель 1991 (диск I)
Аудиокодек: FLAC
Тип рипа: tracks+.cue
Битрейт аудио: lossless
Продолжительность: 02:06:18
Источник: скачано с what.cd
Сканов в раздаче: нет
Исполнители: The Hilliard Ensemble
Имена композиторов вшиты в теги
Треклист:

I · Italian Madrigals

01. Cantiam lieti cantiamo (1:59)
02. E d’un bel matin d’amore (0:54)
03. Quella bella e biancha mano (3:14)
04. Una leggiadra nimpha (3:14)
05. Venite amanti insieme (2:24)
06. Divini occhi sereni (1:45)
07. Con l’angelico riso (2:00)
08. Madonna, il tuo bel viso (3:09)
09. Fuggi, fuggi, cor mio (1:36)
10. Si liet’ e grata morte (3:30)
11. Se la dura durezza (1:53)
12. Ahimè, dov’ è’l bel viso (2:24)
13. Madonna, s’io v’offendo (1:52)
14. Il bianco e dolce cigno (2:05)
15. Donne, venete al ballo (3:01)
16. Morir non può il mio cuore (1:58)
17. Se la mia vita (4:57)
18. Mia benigna fortuna (3:08)
19. Anchor che col partire (2:32)
20. O sonno (3:22)
21. Chi la gagliarda (3:25)
22. Madonna mia fa (3:02)
23. Medici nui siamo (4:37)
24. Quando sarà mai quel zorro (4:24)
25. Matona, mia cara (2:32)
26. Tri ciechi siamo (2:05)
Продолжительность: 01:11:02

Лог создания рипа

Exact Audio Copy V1.0 beta 1 from 15. November 2010
EAC extraction logfile from 19. February 2011, 11:30
Hilliard Ensemble / English and Italian Renaissance Madrigals
Used drive : TSSTcorpDVD+-RW TS-L632D Adapter: 1 ID: 0
Read mode : Secure
Utilize accurate stream : Yes
Defeat audio cache : Yes
Make use of C2 pointers : No
Read offset correction : 6
Overread into Lead-In and Lead-Out : No
Fill up missing offset samples with silence : Yes
Delete leading and trailing silent blocks : No
Null samples used in CRC calculations : Yes
Used interface : Native Win32 interface for Win NT & 2000
Gap handling : Appended to previous track
Used output format : User Defined Encoder
Selected bitrate : 1024 kBit/s
Quality : High
Add ID3 tag : No
Command line compressor : C:\Program Files\Exact Audio Copy\FLAC\FLAC.EXE
Additional command line options : --best -T "ARTIST=%a" -T "TITLE=%t" -T "ALBUM=%g" -T "DATE=%y" -T "TRACKNUMBER=%n" -T "GENRE=%m" %s
TOC of the extracted CD
Track | Start | Length | Start sector | End sector
---------------------------------------------------------
1 | 0:00.33 | 1:59.37 | 33 | 8994
2 | 1:59.70 | 0:53.69 | 8995 | 13038
3 | 2:53.64 | 3:13.69 | 13039 | 27582
4 | 6:07.58 | 3:13.69 | 27583 | 42126
5 | 9:21.52 | 2:24.00 | 42127 | 52926
6 | 11:45.52 | 1:45.33 | 52927 | 60834
7 | 13:31.10 | 1:59.63 | 60835 | 69822
8 | 15:30.73 | 3:08.60 | 69823 | 83982
9 | 18:39.58 | 1:35.39 | 83983 | 91146
10 | 20:15.22 | 3:29.71 | 91147 | 106892
11 | 23:45.18 | 1:53.03 | 106893 | 115370
12 | 25:38.21 | 2:23.62 | 115371 | 126157
13 | 28:02.08 | 1:52.13 | 126158 | 134570
14 | 29:54.21 | 2:04.48 | 134571 | 143918
15 | 31:58.69 | 3:01.21 | 143919 | 157514
16 | 35:00.15 | 1:58.18 | 157515 | 166382
17 | 36:58.33 | 4:56.48 | 166383 | 188630
18 | 41:55.06 | 3:07.51 | 188631 | 202706
19 | 45:02.57 | 2:32.12 | 202707 | 214118
20 | 47:34.69 | 3:22.18 | 214119 | 229286
21 | 50:57.12 | 3:25.09 | 229287 | 244670
22 | 54:22.21 | 3:01.45 | 244671 | 258290
23 | 57:23.66 | 4:37.33 | 258291 | 279098
24 | 62:01.24 | 4:24.24 | 279099 | 298922
25 | 66:25.48 | 2:32.00 | 298923 | 310322
26 | 68:57.48 | 2:04.66 | 310323 | 319688
Track 1
Filename C:\EACRips\classical - Madrigale\Hilliard Ensemble\English and Italian Renaissance Madrigals\01-Giovanni Giacomo Gastoldi - Cantiam lieti cantiamo.wav
Pre-gap length 0:00:02.33
Peak level 57.1 %
Extraction speed 2.3 X
Track quality 100.0 %
Test CRC 2C374C10
Copy CRC 2C374C10
Accurately ripped (confidence 15) [D3AE1AFF]
Copy OK
Track 2
Filename C:\EACRips\classical - Madrigale\Hilliard Ensemble\English and Italian Renaissance Madrigals\02-Antonio Caprioli - E d'un bel matin d'amore.wav
Pre-gap length 0:00:02.13
Peak level 41.5 %
Extraction speed 1.8 X
Track quality 100.0 %
Test CRC 05EFEC27
Copy CRC 05EFEC27
Accurately ripped (confidence 15) [B35034B9]
Copy OK
Track 3
Filename C:\EACRips\classical - Madrigale\Hilliard Ensemble\English and Italian Renaissance Madrigals\03-Antonio Caprioli - Quella bella e biancha mano.wav
Pre-gap length 0:00:02.37
Peak level 58.2 %
Extraction speed 2.4 X
Track quality 99.9 %
Test CRC 05FB5AC3
Copy CRC 05FB5AC3
Accurately ripped (confidence 15) [FA5437EB]
Copy OK
Track 4
Filename C:\EACRips\classical - Madrigale\Hilliard Ensemble\English and Italian Renaissance Madrigals\04-Antonio Caprioli - Una leggiadra nimpha.wav
Pre-gap length 0:00:02.38
Peak level 39.1 %
Extraction speed 2.6 X
Track quality 99.9 %
Test CRC 10228C64
Copy CRC 10228C64
Accurately ripped (confidence 15) [922EF3FD]
Copy OK
Track 5
Filename C:\EACRips\classical - Madrigale\Hilliard Ensemble\English and Italian Renaissance Madrigals\05-Loyset Compère - Venite amanti insieme.wav
Pre-gap length 0:00:04.07
Peak level 33.3 %
Extraction speed 3.0 X
Track quality 100.0 %
Test CRC 3DEE3412
Copy CRC 3DEE3412
Accurately ripped (confidence 15) [A8068D11]
Copy OK
Track 6
Filename C:\EACRips\classical - Madrigale\Hilliard Ensemble\English and Italian Renaissance Madrigals\06-Phillipe Verdelot - Divini occhi sereni.wav
Pre-gap length 0:00:05.16
Peak level 39.2 %
Extraction speed 2.8 X
Track quality 100.0 %
Test CRC 6D4182EB
Copy CRC 6D4182EB
Accurately ripped (confidence 15) [6360B7BB]
Copy OK
Track 7
Filename C:\EACRips\classical - Madrigale\Hilliard Ensemble\English and Italian Renaissance Madrigals\07-Phillipe Verdelot - Con l'angelico riso.wav
Pre-gap length 0:00:02.25
Peak level 37.5 %
Extraction speed 2.4 X
Track quality 99.9 %
Test CRC B21F6628
Copy CRC B21F6628
Accurately ripped (confidence 15) [C4F7460F]
Copy OK
Track 8
Filename C:\EACRips\classical - Madrigale\Hilliard Ensemble\English and Italian Renaissance Madrigals\08-Phillipe Verdelot - Madonna, il tuo bel viso.wav
Pre-gap length 0:00:02.37
Peak level 38.4 %
Extraction speed 3.5 X
Track quality 100.0 %
Test CRC 860A85F2
Copy CRC 860A85F2
Accurately ripped (confidence 15) [2C29F645]
Copy OK
Track 9
Filename C:\EACRips\classical - Madrigale\Hilliard Ensemble\English and Italian Renaissance Madrigals\09-Phillipe Verdelot - Fuggi, fuggi, cor mio.wav
Pre-gap length 0:00:01.28
Peak level 45.0 %
Extraction speed 3.1 X
Track quality 100.0 %
Test CRC D66635DF
Copy CRC D66635DF
Accurately ripped (confidence 15) [6842213F]
Copy OK
Track 10
Filename C:\EACRips\classical - Madrigale\Hilliard Ensemble\English and Italian Renaissance Madrigals\10-Phillipe Verdelot - Si liet' e grata morte.wav
Pre-gap length 0:00:02.14
Peak level 42.7 %
Extraction speed 3.8 X
Track quality 100.0 %
Test CRC A6898FE6
Copy CRC A6898FE6
Accurately ripped (confidence 15) [1D33874B]
Copy OK
Track 11
Filename C:\EACRips\classical - Madrigale\Hilliard Ensemble\English and Italian Renaissance Madrigals\11-Jaques Arcadelt - Se la dura durezza.wav
Pre-gap length 0:00:05.40
Peak level 39.5 %
Extraction speed 3.4 X
Track quality 100.0 %
Test CRC 37F34967
Copy CRC 37F34967
Accurately ripped (confidence 15) [31432130]
Copy OK
Track 12
Filename C:\EACRips\classical - Madrigale\Hilliard Ensemble\English and Italian Renaissance Madrigals\12-Jaques Arcadelt - Ahimè, ahimè, dov'è 'l bel viso.wav
Pre-gap length 0:00:02.37
Peak level 48.7 %
Extraction speed 3.8 X
Track quality 100.0 %
Test CRC 96335B1E
Copy CRC 96335B1E
Accurately ripped (confidence 15) [562B8ADC]
Copy OK
Track 13
Filename C:\EACRips\classical - Madrigale\Hilliard Ensemble\English and Italian Renaissance Madrigals\13-Jaques Arcadelt - Madonna, s'io v'offendo.wav
Pre-gap length 0:00:01.63
Peak level 63.3 %
Extraction speed 3.6 X
Track quality 100.0 %
Test CRC 75BE8B2E
Copy CRC 75BE8B2E
Accurately ripped (confidence 15) [3B9224DD]
Copy OK
Track 14
Filename C:\EACRips\classical - Madrigale\Hilliard Ensemble\English and Italian Renaissance Madrigals\14-Jaques Arcadelt - Il bianco e dolce cigno.wav
Pre-gap length 0:00:02.61
Peak level 50.7 %
Extraction speed 3.8 X
Track quality 100.0 %
Test CRC 55C0CFBC
Copy CRC 55C0CFBC
Accurately ripped (confidence 15) [39607D3A]
Copy OK
Track 15
Filename C:\EACRips\classical - Madrigale\Hilliard Ensemble\English and Italian Renaissance Madrigals\15-Francesco Patavino - Donne, venete al ballo.wav
Pre-gap length 0:00:04.31
Peak level 47.1 %
Extraction speed 4.2 X
Track quality 100.0 %
Test CRC 7909DE11
Copy CRC 7909DE11
Accurately ripped (confidence 15) [AAA0D12B]
Copy OK
Track 16
Filename C:\EACRips\classical - Madrigale\Hilliard Ensemble\English and Italian Renaissance Madrigals\16-Maddalena Casulana - Morir non può il mio cuore.wav
Pre-gap length 0:00:03.10
Peak level 54.4 %
Extraction speed 3.2 X
Track quality 99.9 %
Test CRC AF8CDE69
Copy CRC AF8CDE69
Accurately ripped (confidence 15) [69C587AA]
Copy OK
Track 17
Filename C:\EACRips\classical - Madrigale\Hilliard Ensemble\English and Italian Renaissance Madrigals\17-Luca Marenzio - Se la mia vita.wav
Pre-gap length 0:00:06.49
Peak level 43.6 %
Extraction speed 4.8 X
Track quality 100.0 %
Test CRC AB6F40F5
Copy CRC AB6F40F5
Accurately ripped (confidence 15) [16064342]
Copy OK
Track 18
Filename C:\EACRips\classical - Madrigale\Hilliard Ensemble\English and Italian Renaissance Madrigals\18-Cipriano da Rore - Mia benigna fortuna.wav
Pre-gap length 0:00:06.01
Peak level 54.7 %
Extraction speed 4.1 X
Track quality 100.0 %
Test CRC D62076DE
Copy CRC D62076DE
Accurately ripped (confidence 15) [6D5BAC46]
Copy OK
Track 19
Filename C:\EACRips\classical - Madrigale\Hilliard Ensemble\English and Italian Renaissance Madrigals\19-Cipriano da Rore - Anchor che col partire.wav
Pre-gap length 0:00:03.34
Peak level 44.1 %
Extraction speed 4.6 X
Track quality 100.0 %
Test CRC 1615A31C
Copy CRC 1615A31C
Accurately ripped (confidence 15) [7DB0C0D4]
Copy OK
Track 20
Filename C:\EACRips\classical - Madrigale\Hilliard Ensemble\English and Italian Renaissance Madrigals\20-Cipriano da Rore - O sonno.wav
Pre-gap length 0:00:02.61
Peak level 63.7 %
Extraction speed 4.2 X
Track quality 99.9 %
Test CRC CA2E6885
Copy CRC CA2E6885
Accurately ripped (confidence 15) [1396899A]
Copy OK
Track 21
Filename C:\EACRips\classical - Madrigale\Hilliard Ensemble\English and Italian Renaissance Madrigals\21-Giovan Domenico da Nola - Chi la gagliarda.wav
Pre-gap length 0:00:05.28
Peak level 39.6 %
Extraction speed 5.0 X
Track quality 100.0 %
Test CRC 7BF3CF5C
Copy CRC 7BF3CF5C
Accurately ripped (confidence 15) [F667651A]
Copy OK
Track 22
Filename C:\EACRips\classical - Madrigale\Hilliard Ensemble\English and Italian Renaissance Madrigals\22-Adrian Willaert - Madonna mia fa.wav
Pre-gap length 0:00:04.55
Peak level 34.5 %
Extraction speed 5.0 X
Track quality 100.0 %
Test CRC EC49CBF0
Copy CRC EC49CBF0
Accurately ripped (confidence 15) [A03B56DB]
Copy OK
Track 23
Filename C:\EACRips\classical - Madrigale\Hilliard Ensemble\English and Italian Renaissance Madrigals\23-Giovan Domenico da Nola - Medici nui siamo.wav
Pre-gap length 0:00:01.64
Peak level 49.6 %
Extraction speed 5.5 X
Track quality 100.0 %
Test CRC FCA2AA82
Copy CRC FCA2AA82
Accurately ripped (confidence 15) [9D6C072E]
Copy OK
Track 24
Filename C:\EACRips\classical - Madrigale\Hilliard Ensemble\English and Italian Renaissance Madrigals\24-Vincenzo Bell'Haver - Quando sarà mai quel zorno.wav
Pre-gap length 0:00:03.10
Peak level 47.5 %
Extraction speed 4.9 X
Track quality 99.9 %
Test CRC 4A4BD75E
Copy CRC 4A4BD75E
Accurately ripped (confidence 15) [EFF13567]
Copy OK
Track 25
Filename C:\EACRips\classical - Madrigale\Hilliard Ensemble\English and Italian Renaissance Madrigals\25-Lasso , Matona, mia cara.wav
Pre-gap length 0:00:03.10
Peak level 53.7 %
Extraction speed 5.2 X
Track quality 100.0 %
Test CRC 6D82A366
Copy CRC 6D82A366
Accurately ripped (confidence 15) [F6A9E23A]
Copy OK
Track 26
Filename C:\EACRips\classical - Madrigale\Hilliard Ensemble\English and Italian Renaissance Madrigals\26-Giovan Domenico da Nola - Tri ciechi siamo.wav
Pre-gap length 0:00:02.61
Peak level 38.6 %
Extraction speed 4.0 X
Track quality 99.9 %
Test CRC BFDB1F9B
Copy CRC BFDB1F9B
Accurately ripped (confidence 15) [6327129C]
Copy OK
All tracks accurately ripped
No errors occurred
End of status report

Содержание индексной карты (.CUE)

REM DATE 1999
REM DISCID 6110A61A
REM COMMENT "ExactAudioCopy v1.0b1"
PERFORMER "The Hilliard Ensemble"
TITLE "English And Italian Renaissance Madrigals"
FILE "01. Cantiam lieti cantiamo.wav" WAVE
TRACK 01 AUDIO
TITLE "Cantiam lieti cantiamo"
PERFORMER "The Hilliard Ensemble"
PREGAP 00:00:33
INDEX 01 00:00:00
TRACK 02 AUDIO
TITLE "E d’un bel matin d’amore"
PERFORMER "The Hilliard Ensemble"
INDEX 00 01:57:24
FILE "02. E d’un bel matin d’amore.wav" WAVE
INDEX 01 00:00:00
TRACK 03 AUDIO
TITLE "Quella bella e biancha mano"
PERFORMER "The Hilliard Ensemble"
INDEX 00 00:51:32
FILE "03. Quella bella e biancha mano.wav" WAVE
INDEX 01 00:00:00
TRACK 04 AUDIO
TITLE "Una leggiadra nimpha"
PERFORMER "The Hilliard Ensemble"
INDEX 00 03:11:31
FILE "04. Una leggiadra nimpha.wav" WAVE
INDEX 01 00:00:00
TRACK 05 AUDIO
TITLE "Venite amanti insieme"
PERFORMER "The Hilliard Ensemble"
INDEX 00 03:09:62
FILE "05. Venite amanti insieme.wav" WAVE
INDEX 01 00:00:00
TRACK 06 AUDIO
TITLE "Divini occhi sereni"
PERFORMER "The Hilliard Ensemble"
INDEX 00 02:18:59
FILE "06. Divini occhi sereni.wav" WAVE
INDEX 01 00:00:00
TRACK 07 AUDIO
TITLE "Con l’angelico riso"
PERFORMER "The Hilliard Ensemble"
INDEX 00 01:43:08
FILE "07. Con l’angelico riso.wav" WAVE
INDEX 01 00:00:00
TRACK 08 AUDIO
TITLE "Madonna, il tuo bel viso"
PERFORMER "The Hilliard Ensemble"
INDEX 00 01:57:26
FILE "08. Madonna, il tuo bel viso.wav" WAVE
INDEX 01 00:00:00
TRACK 09 AUDIO
TITLE "Fuggi, fuggi, cor mio"
PERFORMER "The Hilliard Ensemble"
INDEX 00 03:07:32
FILE "09. Fuggi, fuggi, cor mio.wav" WAVE
INDEX 01 00:00:00
TRACK 10 AUDIO
TITLE "Si liet’ e grata morte"
PERFORMER "The Hilliard Ensemble"
INDEX 00 01:33:25
FILE "10. Si liet’ e grata morte.wav" WAVE
INDEX 01 00:00:00
TRACK 11 AUDIO
TITLE "Se la dura durezza"
PERFORMER "The Hilliard Ensemble"
INDEX 00 03:24:31
FILE "11. Se la dura durezza.wav" WAVE
INDEX 01 00:00:00
TRACK 12 AUDIO
TITLE "Ahimè, dov’ è’l bel viso"
PERFORMER "The Hilliard Ensemble"
INDEX 00 01:50:41
FILE "12. Ahimè, dov’ è’l bel viso.wav" WAVE
INDEX 01 00:00:00
TRACK 13 AUDIO
TITLE "Madonna, s’io v’offendo"
PERFORMER "The Hilliard Ensemble"
INDEX 00 02:21:74
FILE "13. Madonna, s’io v’offendo.wav" WAVE
INDEX 01 00:00:00
TRACK 14 AUDIO
TITLE "Il bianco e dolce cigno"
PERFORMER "The Hilliard Ensemble"
INDEX 00 01:49:27
FILE "14. Il bianco e dolce cigno.wav" WAVE
INDEX 01 00:00:00
TRACK 15 AUDIO
TITLE "Donne, venete al ballo"
PERFORMER "The Hilliard Ensemble"
INDEX 00 02:00:17
FILE "15. Donne, venete al ballo.wav" WAVE
INDEX 01 00:00:00
TRACK 16 AUDIO
TITLE "Morir non può il mio cuore"
PERFORMER "The Hilliard Ensemble"
INDEX 00 02:58:11
FILE "16. Morir non può il mio cuore.wav" WAVE
INDEX 01 00:00:00
TRACK 17 AUDIO
TITLE "Se la mia vita"
PERFORMER "The Hilliard Ensemble"
INDEX 00 01:51:44
FILE "17. Se la mia vita.wav" WAVE
INDEX 01 00:00:00
TRACK 18 AUDIO
TITLE "Mia benigna fortuna"
PERFORMER "The Hilliard Ensemble"
INDEX 00 04:50:47
FILE "18. Mia benigna fortuna.wav" WAVE
INDEX 01 00:00:00
TRACK 19 AUDIO
TITLE "Anchor che col partire"
PERFORMER "The Hilliard Ensemble"
INDEX 00 03:04:17
FILE "19. Anchor che col partire.wav" WAVE
INDEX 01 00:00:00
TRACK 20 AUDIO
TITLE "O sonno"
PERFORMER "The Hilliard Ensemble"
INDEX 00 02:29:26
FILE "20. O sonno.wav" WAVE
INDEX 01 00:00:00
TRACK 21 AUDIO
TITLE "Chi la gagliarda"
PERFORMER "The Hilliard Ensemble"
INDEX 00 03:16:65
FILE "21. Chi la gagliarda.wav" WAVE
INDEX 01 00:00:00
TRACK 22 AUDIO
TITLE "Madonna mia fa"
PERFORMER "The Hilliard Ensemble"
INDEX 00 03:20:29
FILE "22. Madonna mia fa.wav" WAVE
INDEX 01 00:00:00
TRACK 23 AUDIO
TITLE "Medici nui siamo"
PERFORMER "The Hilliard Ensemble"
INDEX 00 02:59:56
FILE "23. Medici nui siamo.wav" WAVE
INDEX 01 00:00:00
TRACK 24 AUDIO
TITLE "Quando sarà mai quel zorro"
PERFORMER "The Hilliard Ensemble"
INDEX 00 04:34:23
FILE "24. Quando sarà mai quel zorro.wav" WAVE
INDEX 01 00:00:00
TRACK 25 AUDIO
TITLE "Matona, mia cara"
PERFORMER "The Hilliard Ensemble"
INDEX 00 04:21:14
FILE "25. Matona, mia cara.wav" WAVE
INDEX 01 00:00:00
TRACK 26 AUDIO
TITLE "Tri ciechi siamo"
PERFORMER "The Hilliard Ensemble"
INDEX 00 02:29:14
FILE "26. Tri ciechi siamo.wav" WAVE
INDEX 01 00:00:00

II · English Madrigals

01. O grief, even on the bud (2:07)
02. When lo, by break of morning (1:43)
03. April is in my mistress’ face (1:29)
04. Thule, the period of Cosmography. The first part (2:28)
05. Thule, the period of Cosmography. The second part (2:24)
06. Sweet nimph come to thy lover (1:42)
07. Sweet hony sucking bees. The first part (1:57)
08. Sweet hony sucking bees. The second part (2:57)
09. Miraculous love’s wounding (3:07)
10. Adieu, sweet Amarillis (2:54)
11. Weep, O mine eyes (2:43)
12. The silver swan (1:49)
13. O Care, thou wilt despatch me. The first part (2:10)
14. O Care, thou wilt despatch me. The second part (2:35)
15. Since Robin Hood (1:29)
16. Fire and lightning (0:58)
17. Strike it up, Tabor (1:42)
18. See, see, the shepherds’ Queen (2:04)
19. Come, sable night (5:42)
20. Sweet Suffolk Owl (2:42)
21. In nets of golden wires (3:01)
22. Draw on sweet night (5:33)
Продолжительность: 00:55:16

Лог создания рипа

Exact Audio Copy V1.0 beta 1 from 15. November 2010
EAC extraction logfile from 19. February 2011, 12:08
Various / English and Italian Renaissance Madrigals II
Used drive : TSSTcorpDVD+-RW TS-L632D Adapter: 1 ID: 0
Read mode : Secure
Utilize accurate stream : Yes
Defeat audio cache : Yes
Make use of C2 pointers : No
Read offset correction : 6
Overread into Lead-In and Lead-Out : No
Fill up missing offset samples with silence : Yes
Delete leading and trailing silent blocks : No
Null samples used in CRC calculations : Yes
Used interface : Native Win32 interface for Win NT & 2000
Gap handling : Appended to previous track
Used output format : User Defined Encoder
Selected bitrate : 1024 kBit/s
Quality : High
Add ID3 tag : No
Command line compressor : C:\Program Files\Exact Audio Copy\FLAC\FLAC.EXE
Additional command line options : --best -T "ARTIST=%a" -T "TITLE=%t" -T "ALBUM=%g" -T "DATE=%y" -T "TRACKNUMBER=%n" -T "GENRE=%m" %s
TOC of the extracted CD
Track | Start | Length | Start sector | End sector
---------------------------------------------------------
1 | 0:00.32 | 2:07.35 | 32 | 9591
2 | 2:07.67 | 1:42.65 | 9592 | 17306
3 | 3:50.57 | 1:28.65 | 17307 | 23971
4 | 5:19.47 | 2:28.10 | 23972 | 35081
5 | 7:47.57 | 2:24.25 | 35082 | 45906
6 | 10:12.07 | 1:41.48 | 45907 | 53529
7 | 11:53.55 | 1:57.35 | 53530 | 62339
8 | 13:51.15 | 2:57.37 | 62340 | 75651
9 | 16:48.52 | 3:07.20 | 75652 | 89696
10 | 19:55.72 | 2:53.70 | 89697 | 102741
11 | 22:49.67 | 2:42.60 | 102742 | 114951
12 | 25:32.52 | 1:49.33 | 114952 | 123159
13 | 27:22.10 | 2:09.40 | 123160 | 132874
14 | 29:31.50 | 2:35.07 | 132875 | 144506
15 | 32:06.57 | 1:28.40 | 144507 | 151146
16 | 33:35.22 | 0:58.15 | 151147 | 155511
17 | 34:33.37 | 1:41.50 | 155512 | 163136
18 | 36:15.12 | 2:03.40 | 163137 | 172401
19 | 38:18.52 | 5:42.05 | 172402 | 198056
20 | 44:00.57 | 2:41.43 | 198057 | 210174
21 | 46:42.25 | 3:00.57 | 210175 | 223731
22 | 49:43.07 | 5:32.68 | 223732 | 248699
Track 1
Filename C:\EACRips\Madrigals\Various Artists\English and Italian Renaissance Madrigals II\01-Thomas Morley - O Grief even on the Bud.wav
Pre-gap length 0:00:02.32
Peak level 34.7 %
Extraction speed 2.4 X
Track quality 100.0 %
Test CRC 3E543AF3
Copy CRC 3E543AF3
Accurately ripped (confidence 15) [13DE90D8]
Copy OK
Track 2
Filename C:\EACRips\Madrigals\Various Artists\English and Italian Renaissance Madrigals II\02-Thomas Morley - When lo by break of morning.wav
Peak level 18.3 %
Extraction speed 2.4 X
Track quality 100.0 %
Test CRC 10F25819
Copy CRC 10F25819
Accurately ripped (confidence 15) [36CE8BD2]
Copy OK
Track 3
Filename C:\EACRips\Madrigals\Various Artists\English and Italian Renaissance Madrigals II\03-Thomas Morley - Aprill is in my mistress' face.wav
Peak level 28.0 %
Extraction speed 2.4 X
Track quality 100.0 %
Test CRC 40804367
Copy CRC 40804367
Accurately ripped (confidence 15) [24333847]
Copy OK
Track 4
Filename C:\EACRips\Madrigals\Various Artists\English and Italian Renaissance Madrigals II\04-Thomas Weelkes - Thule, the period of cosmography. The first part.wav
Peak level 79.6 %
Extraction speed 2.8 X
Track quality 100.0 %
Test CRC 63813905
Copy CRC 63813905
Accurately ripped (confidence 15) [F9A8F82A]
Copy OK
Track 5
Filename C:\EACRips\Madrigals\Various Artists\English and Italian Renaissance Madrigals II\05-Thomas Weelkes - Thule, the period of cosmography. The second part.wav
Peak level 48.3 %
Extraction speed 3.0 X
Track quality 100.0 %
Test CRC BEDABA57
Copy CRC BEDABA57
Accurately ripped (confidence 15) [3090B3A9]
Copy OK
Track 6
Filename C:\EACRips\Madrigals\Various Artists\English and Italian Renaissance Madrigals II\06-Thomas Morley - Sweet nimph come to thy lover.wav
Peak level 41.8 %
Extraction speed 2.8 X
Track quality 100.0 %
Test CRC 7514E101
Copy CRC 7514E101
Accurately ripped (confidence 15) [7B3D4EE8]
Copy OK
Track 7
Filename C:\EACRips\Madrigals\Various Artists\English and Italian Renaissance Madrigals II\07-John Wilbye - Sweet hony sucking bees. The first part.wav
Peak level 39.3 %
Extraction speed 3.0 X
Track quality 100.0 %
Test CRC F46CA55C
Copy CRC F46CA55C
Accurately ripped (confidence 15) [8034E566]
Copy OK
Track 8
Filename C:\EACRips\Madrigals\Various Artists\English and Italian Renaissance Madrigals II\08-John Wilbye - Sweet hony sucking bees. The second part.wav
Peak level 72.6 %
Extraction speed 3.4 X
Track quality 100.0 %
Test CRC 37D048DF
Copy CRC 37D048DF
Accurately ripped (confidence 15) [1A418040]
Copy OK
Track 9
Filename C:\EACRips\Madrigals\Various Artists\English and Italian Renaissance Madrigals II\09-Thomas Morley - Miraculous love's wounding.wav
Peak level 15.5 %
Extraction speed 3.1 X
Track quality 99.9 %
Test CRC D5C96ECD
Copy CRC D5C96ECD
Accurately ripped (confidence 15) [0CB8C976]
Copy OK
Track 10
Filename C:\EACRips\Madrigals\Various Artists\English and Italian Renaissance Madrigals II\10-John Wilbye - Adieu sweet Amarillis.wav
Peak level 46.6 %
Extraction speed 3.7 X
Track quality 100.0 %
Test CRC CA99C98F
Copy CRC CA99C98F
Accurately ripped (confidence 15) [1F3D1C4C]
Copy OK
Track 11
Filename C:\EACRips\Madrigals\Various Artists\English and Italian Renaissance Madrigals II\11-John Bennet - Weep O mine eyes.wav
Peak level 25.8 %
Extraction speed 3.8 X
Track quality 100.0 %
Test CRC A1E6BD1C
Copy CRC A1E6BD1C
Accurately ripped (confidence 15) [C6D171BC]
Copy OK
Track 12
Filename C:\EACRips\Madrigals\Various Artists\English and Italian Renaissance Madrigals II\12-Orlando Gibbons - The silver Swan.wav
Peak level 43.7 %
Extraction speed 3.6 X
Track quality 100.0 %
Test CRC 0A1643C6
Copy CRC 0A1643C6
Accurately ripped (confidence 15) [D95B31E0]
Copy OK
Track 13
Filename C:\EACRips\Madrigals\Various Artists\English and Italian Renaissance Madrigals II\13-Thomas Weelkes - O Care thou wilt dispatch me. The first part.wav
Peak level 27.9 %
Extraction speed 3.8 X
Track quality 100.0 %
Test CRC 49EB9F62
Copy CRC 49EB9F62
Accurately ripped (confidence 15) [0688B61E]
Copy OK
Track 14
Filename C:\EACRips\Madrigals\Various Artists\English and Italian Renaissance Madrigals II\14-Thomas Weelkes - O Care thou wilt dispatch me. The second part.wav
Peak level 62.7 %
Extraction speed 4.0 X
Track quality 100.0 %
Test CRC D1461318
Copy CRC D1461318
Accurately ripped (confidence 15) [83720CE0]
Copy OK
Track 15
Filename C:\EACRips\Madrigals\Various Artists\English and Italian Renaissance Madrigals II\15-Thomas Weelkes - Since Robin Hood.wav
Peak level 20.6 %
Extraction speed 3.6 X
Track quality 100.0 %
Test CRC 6DE2EEEC
Copy CRC 6DE2EEEC
Accurately ripped (confidence 15) [D02D8A3D]
Copy OK
Track 16
Filename C:\EACRips\Madrigals\Various Artists\English and Italian Renaissance Madrigals II\16-Thomas Morley - Fire and lightning.wav
Peak level 23.1 %
Extraction speed 3.1 X
Track quality 100.0 %
Test CRC C869A34F
Copy CRC C869A34F
Accurately ripped (confidence 15) [BE5FD8AF]
Copy OK
Track 17
Filename C:\EACRips\Madrigals\Various Artists\English and Italian Renaissance Madrigals II\17-Thomas Weelkes - Strike it up Tabor.wav
Peak level 36.3 %
Extraction speed 3.8 X
Track quality 100.0 %
Test CRC 3C5EB8D9
Copy CRC 3C5EB8D9
Accurately ripped (confidence 15) [D1A4D4C5]
Copy OK
Track 18
Filename C:\EACRips\Madrigals\Various Artists\English and Italian Renaissance Madrigals II\18-Thomas Tomkins - See, see, the shepherds' Queen.wav
Peak level 60.4 %
Extraction speed 3.3 X
Track quality 99.9 %
Test CRC 6486C770
Copy CRC 6486C770
Accurately ripped (confidence 15) [55D61AA3]
Copy OK
Track 19
Filename C:\EACRips\Madrigals\Various Artists\English and Italian Renaissance Madrigals II\19-John Ward - Come sable night.wav
Peak level 46.0 %
Extraction speed 5.0 X
Track quality 100.0 %
Test CRC D114DA36
Copy CRC D114DA36
Accurately ripped (confidence 15) [4A3D38A0]
Copy OK
Track 20
Filename C:\EACRips\Madrigals\Various Artists\English and Italian Renaissance Madrigals II\20-Thomas Vautor - Sweet Suffolk Owl.wav
Peak level 63.7 %
Extraction speed 4.6 X
Track quality 100.0 %
Test CRC 1A3DFFC4
Copy CRC 1A3DFFC4
Accurately ripped (confidence 15) [35D73707]
Copy OK
Track 21
Filename C:\EACRips\Madrigals\Various Artists\English and Italian Renaissance Madrigals II\21-Thomas Morley - In nets of golden wires.wav
Peak level 43.8 %
Extraction speed 4.9 X
Track quality 100.0 %
Test CRC 2C51EAF5
Copy CRC 2C51EAF5
Accurately ripped (confidence 15) [E6E113E0]
Copy OK
Track 22
Filename C:\EACRips\Madrigals\Various Artists\English and Italian Renaissance Madrigals II\22-John Wilbye - Draw on sweet night.wav
Peak level 47.5 %
Extraction speed 5.5 X
Track quality 100.0 %
Test CRC 3A105875
Copy CRC 3A105875
Accurately ripped (confidence 15) [68F24472]
Copy OK
All tracks accurately ripped
No errors occurred
End of status report

Содержание индексной карты (.CUE)

REM DATE 1999
REM DISCID 190CF416
REM COMMENT "ExactAudioCopy v1.0b1"
PERFORMER "The Hilliard Ensemble"
TITLE "English And Italian Renaissance Madrigals"
FILE "01. O grief, even on the bud.wav" WAVE
TRACK 01 AUDIO
TITLE "O grief, even on the bud"
PERFORMER "The Hilliard Ensemble"
PREGAP 00:00:32
INDEX 01 00:00:00
FILE "02. When lo, by break of morning.wav" WAVE
TRACK 02 AUDIO
TITLE "When lo, by break of morning"
PERFORMER "The Hilliard Ensemble"
INDEX 01 00:00:00
FILE "03. April is in my mistress’ face.wav" WAVE
TRACK 03 AUDIO
TITLE "April is in my mistress’ face"
PERFORMER "The Hilliard Ensemble"
INDEX 01 00:00:00
FILE "04. Thule, the period of Cosmography. The first part.wav" WAVE
TRACK 04 AUDIO
TITLE "Thule, the period of Cosmography. The first part"
PERFORMER "The Hilliard Ensemble"
INDEX 01 00:00:00
FILE "05. Thule, the period of Cosmography. The second part.wav" WAVE
TRACK 05 AUDIO
TITLE "Thule, the period of Cosmography. The second part"
PERFORMER "The Hilliard Ensemble"
INDEX 01 00:00:00
FILE "06. Sweet nimph come to thy lover.wav" WAVE
TRACK 06 AUDIO
TITLE "Sweet nimph come to thy lover"
PERFORMER "The Hilliard Ensemble"
INDEX 01 00:00:00
FILE "07. Sweet hony sucking bees. The first part.wav" WAVE
TRACK 07 AUDIO
TITLE "Sweet hony sucking bees. The first part"
PERFORMER "The Hilliard Ensemble"
INDEX 01 00:00:00
FILE "08. Sweet hony sucking bees. The second part.wav" WAVE
TRACK 08 AUDIO
TITLE "Sweet hony sucking bees. The second part"
PERFORMER "The Hilliard Ensemble"
INDEX 01 00:00:00
FILE "09. Miraculous love’s wounding.wav" WAVE
TRACK 09 AUDIO
TITLE "Miraculous love’s wounding"
PERFORMER "The Hilliard Ensemble"
INDEX 01 00:00:00
FILE "10. Adieu, sweet Amarillis.wav" WAVE
TRACK 10 AUDIO
TITLE "Adieu, sweet Amarillis"
PERFORMER "The Hilliard Ensemble"
INDEX 01 00:00:00
FILE "11. Weep, O mine eyes.wav" WAVE
TRACK 11 AUDIO
TITLE "Weep, O mine eyes"
PERFORMER "The Hilliard Ensemble"
INDEX 01 00:00:00
FILE "12. The silver swan.wav" WAVE
TRACK 12 AUDIO
TITLE "The silver swan"
PERFORMER "The Hilliard Ensemble"
INDEX 01 00:00:00
FILE "13. O Care, thou wilt despatch me. The first part.wav" WAVE
TRACK 13 AUDIO
TITLE "O Care, thou wilt despatch me. The first part"
PERFORMER "The Hilliard Ensemble"
INDEX 01 00:00:00
FILE "14. O Care, thou wilt despatch me. The second part.wav" WAVE
TRACK 14 AUDIO
TITLE "O Care, thou wilt despatch me. The second part"
PERFORMER "The Hilliard Ensemble"
INDEX 01 00:00:00
FILE "15. Since Robin Hood.wav" WAVE
TRACK 15 AUDIO
TITLE "Since Robin Hood"
PERFORMER "The Hilliard Ensemble"
INDEX 01 00:00:00
FILE "16. Fire and lightning.wav" WAVE
TRACK 16 AUDIO
TITLE "Fire and lightning"
PERFORMER "The Hilliard Ensemble"
INDEX 01 00:00:00
FILE "17. Strike it up, Tabor.wav" WAVE
TRACK 17 AUDIO
TITLE "Strike it up, Tabor"
PERFORMER "The Hilliard Ensemble"
INDEX 01 00:00:00
FILE "18. See, see, the shepherds’ Queen.wav" WAVE
TRACK 18 AUDIO
TITLE "See, see, the shepherds’ Queen"
PERFORMER "The Hilliard Ensemble"
INDEX 01 00:00:00
FILE "19. Come, sable night.wav" WAVE
TRACK 19 AUDIO
TITLE "Come, sable night"
PERFORMER "The Hilliard Ensemble"
INDEX 01 00:00:00
FILE "20. Sweet Suffolk Owl.wav" WAVE
TRACK 20 AUDIO
TITLE "Sweet Suffolk Owl"
PERFORMER "The Hilliard Ensemble"
INDEX 01 00:00:00
FILE "21. In nets of golden wires.wav" WAVE
TRACK 21 AUDIO
TITLE "In nets of golden wires"
PERFORMER "The Hilliard Ensemble"
INDEX 01 00:00:00
FILE "22. Draw on sweet night.wav" WAVE
TRACK 22 AUDIO
TITLE "Draw on sweet night"
PERFORMER "The Hilliard Ensemble"
INDEX 01 00:00:00



Показать сообщения:    

Текущее время: 04-Дек 04:54

Часовой пояс: UTC + 3


Вы не можете начинать темы
Вы не можете отвечать на сообщения
Вы не можете редактировать свои сообщения
Вы не можете удалять свои сообщения
Вы не можете голосовать в опросах
Вы не можете прикреплять файлы к сообщениям
Вы не можете скачивать файлы