(Classical) Olivier Messiaen · Quatuor pour la fin du temps, Theme et variations pour violon et piano (Trio Wanderer & Pascal Moragues) 2008, FLAC (tracks+.cue) lossless


 

[Цитировать]

Olivier Messiaen Quatuor pour la fin du temps
Жанр: classical
Страна-производитель диска: France
Год издания диска: 2008
Издатель: Harmonia Mundi
Номер по каталогу: HMC 901987
Дата записи: ?
Аудиокодек: FLAC
Тип рипа: tracks+.cue
Битрейт аудио: lossless
Продолжительность: 01:02:25
Источник: скачано с what.cd
Наличие сканов в содержимом раздачи: нет
Исполнители: Trio Wanderer & Pascal Moraguès
Треклист:
Quatuor pour la fin du temps
01. I. Liturgie de cristal (2:56)
02. II. Vocalise (6:00)
03. III. Abîme des oiseaux (8:18)
04. IV. Intermède (1:46)
05. V. Louange à l’Eternité de Jésus (10:53)
06. VI. Danse de la fureur (6:22)
07. VII. Fouillis d’arcs-en-ciel (8:38)
08. VIII. Louange à l’Immortalité de Jésus (7:03)
09. Thème et variations pour violon et piano (10:29)

Лог создания рипа

Exact Audio Copy V0.99 prebeta 4 from 23. January 2008
EAC extraction logfile from 23. June 2009, 14:27
Olivier Messiaen / Quatuor pour la fin du temps (Trio Wanderer, Pascal Moraguиs)
Used drive : HL-DT-STDVD-RAM GSA-H54L Adapter: 0 ID: 0
Read mode : Secure
Utilize accurate stream : Yes
Defeat audio cache : Yes
Make use of C2 pointers : No
Read offset correction : 102
Overread into Lead-In and Lead-Out : No
Fill up missing offset samples with silence : Yes
Delete leading and trailing silent blocks : No
Null samples used in CRC calculations : Yes
Used interface : Native Win32 interface for Win NT & 2000
Gap handling : Appended to previous track
Used output format : User Defined Encoder
Selected bitrate : 192 kBit/s
Quality : High
Add ID3 tag : No
Command line compressor : C:\Program Files\Exact Audio Copy\Flac\flac.exe
Additional command line options : -8 -A tukey(0.25) -A gauss(0.1875) -b 4096 -V -T "artist=%a" -T "title=%t" -T "album=%g" -T "date=%y" -T "tracknumber=%n" -T "genre=%m" %s
TOC of the extracted CD
Track | Start | Length | Start sector | End sector
---------------------------------------------------------
1 | 0:00.00 | 2:56.28 | 0 | 13227
2 | 2:56.28 | 5:59.56 | 13228 | 40208
3 | 8:56.09 | 8:18.15 | 40209 | 77573
4 | 17:14.24 | 1:45.50 | 77574 | 85498
5 | 18:59.74 | 10:52.54 | 85499 | 134452
6 | 29:52.53 | 6:21.73 | 134453 | 163100
7 | 36:14.51 | 8:38.00 | 163101 | 201950
8 | 44:52.51 | 7:03.10 | 201951 | 233685
9 | 51:55.61 | 10:29.14 | 233686 | 280874
Track 1
Filename 01 - Quatuor pour la fin du temps. I. Liturgie de cristal.wav
Pre-gap length 0:00:02.00
Peak level 43.6 %
Track quality 100.0 %
Test CRC C7CADD0D
Copy CRC C7CADD0D
Accurately ripped (confidence 2) [BDA943A8]
Copy OK
Track 2
Filename 02 - Quatuor pour la fin du temps. II. Vocalise.wav
Pre-gap length 0:00:00.62
Peak level 99.6 %
Track quality 100.0 %
Test CRC 46C262E9
Copy CRC 46C262E9
Accurately ripped (confidence 2) [03BA5D45]
Copy OK
Track 3
Filename 03 - Quatuor pour la fin du temps. III. Abоme des oiseaux.wav
Pre-gap length 0:00:03.49
Peak level 84.8 %
Track quality 100.0 %
Test CRC AF3BE4B0
Copy CRC AF3BE4B0
Accurately ripped (confidence 2) [3E96AA2C]
Copy OK
Track 4
Filename 04 - Quatuor pour la fin du temps. IV. Intermиde.wav
Pre-gap length 0:00:02.57
Peak level 75.3 %
Track quality 100.0 %
Test CRC EB6BDDA4
Copy CRC EB6BDDA4
Accurately ripped (confidence 2) [A59FF07E]
Copy OK
Track 5
Filename 05 - Quatuor pour la fin du temps. V. Louange а l'Eternitй de Jйsus.wav
Pre-gap length 0:00:03.77
Peak level 60.3 %
Track quality 100.0 %
Test CRC 89A27DBC
Copy CRC 89A27DBC
Accurately ripped (confidence 2) [AE8B2266]
Copy OK
Track 6
Filename 06 - Quatuor pour la fin du temps. VI. Danse de la fureur.wav
Pre-gap length 0:00:04.65
Peak level 99.7 %
Track quality 100.0 %
Test CRC D0BEF2C3
Copy CRC D0BEF2C3
Accurately ripped (confidence 2) [54F67133]
Copy OK
Track 7
Filename 07 - Quatuor pour la fin du temps. VII. Fouillis d'arcs-en-ciel.wav
Pre-gap length 0:00:02.42
Peak level 99.6 %
Track quality 99.9 %
Test CRC F69F97DE
Copy CRC F69F97DE
Accurately ripped (confidence 2) [ED69D5C2]
Copy OK
Track 8
Filename 08 - Quatuor pour la fin du temps. VIII. Louange а l'Immortalitй de Jйsus.wav
Pre-gap length 0:00:03.41
Peak level 63.7 %
Track quality 100.0 %
Test CRC 5E0BA1FB
Copy CRC 5E0BA1FB
Accurately ripped (confidence 2) [BB00FDDF]
Copy OK
Track 9
Filename 09 - Thиme et variations pour violon et piano.wav
Pre-gap length 0:00:05.25
Peak level 92.7 %
Track quality 100.0 %
Test CRC C73C990F
Copy CRC C73C990F
Accurately ripped (confidence 2) [B042A560]
Copy OK
All tracks accurately ripped
No errors occurred
End of status report

Содержание индексной карты (.CUE)

REM DATE 2008
REM DISCID 790EA109
REM COMMENT "ExactAudioCopy v0.99pb4"
PERFORMER "Trio Wanderer & Pascal Moraguès"
TITLE "Quatuor pour la fin du temps"
FILE "01. I. Liturgie de cristal.wav" WAVE
TRACK 01 AUDIO
TITLE "I. Liturgie de cristal"
PERFORMER "Trio Wanderer & Pascal Moraguès"
INDEX 01 00:00:00
TRACK 02 AUDIO
TITLE "II. Vocalise"
PERFORMER "Trio Wanderer & Pascal Moraguès"
INDEX 00 02:55:56
FILE "02. II. Vocalise.wav" WAVE
INDEX 01 00:00:00
TRACK 03 AUDIO
TITLE "III. Abоme des oiseaux"
PERFORMER "Trio Wanderer & Pascal Moraguès"
INDEX 00 05:56:19
FILE "03. III. Abоme des oiseaux.wav" WAVE
INDEX 01 00:00:00
TRACK 04 AUDIO
TITLE "IV. Intermède"
PERFORMER "Trio Wanderer & Pascal Moraguès"
INDEX 00 08:15:47
FILE "04. IV. Intermède.wav" WAVE
INDEX 01 00:00:00
TRACK 05 AUDIO
TITLE "V. Louange à l’Eternité de Jésus"
PERFORMER "Trio Wanderer & Pascal Moraguès"
INDEX 00 01:41:67
FILE "05. V. Louange à l’Eternité de Jésus.wav" WAVE
INDEX 01 00:00:00
TRACK 06 AUDIO
TITLE "VI. Danse de la fureur"
PERFORMER "Trio Wanderer & Pascal Moraguès"
INDEX 00 10:48:05
FILE "06. VI. Danse de la fureur.wav" WAVE
INDEX 01 00:00:00
TRACK 07 AUDIO
TITLE "VII. Fouillis d’arcs-en-ciel"
PERFORMER "Trio Wanderer & Pascal Moraguès"
INDEX 00 06:19:41
FILE "07. VII. Fouillis d’arcs-en-ciel.wav" WAVE
INDEX 01 00:00:00
TRACK 08 AUDIO
TITLE "VIII. Louange à l’Immortalité de Jésus"
PERFORMER "Trio Wanderer & Pascal Moraguès"
INDEX 00 08:34:44
FILE "08. VIII. Louange à l’Immortalité de Jésus.wav" WAVE
INDEX 01 00:00:00
TRACK 09 AUDIO
TITLE "Thème et variations pour violon et piano"
PERFORMER "Trio Wanderer & Pascal Moraguès"
INDEX 00 06:57:66
FILE "09. Thème et variations pour violon et piano.wav" WAVE
INDEX 01 00:00:00



Показать сообщения:    

Текущее время: 03-Дек 01:21

Часовой пояс: UTC + 3


Вы не можете начинать темы
Вы не можете отвечать на сообщения
Вы не можете редактировать свои сообщения
Вы не можете удалять свои сообщения
Вы не можете голосовать в опросах
Вы не можете прикреплять файлы к сообщениям
Вы не можете скачивать файлы