Вася высочество. Василий Лановой (Елена Никитан) [2004, Документальный, биография, искусство, история, SATRip]


Статистика раздачи [Обновить пиров]
Размер:  562 MB   |    Зарегистрирован:  8 месяцев 21 день   |    Скачан:  0 раз

Полного источника не было: Никогда

 
   
 
 
 

[Цитировать]

Вася высочество. Василий Лановой
Дата/Год выпуска: 2004
Страна: Россия, ГТРК "Культура"
Жанр: Документальный, биография, искусство, история
Продолжительность: 00:38:32
Перевод: Не требуется
Русские субтитры: нет
Режиссер: Елена Никитан
Описание: Творчество Василия Ланового едва ли нуждается в представлении. Фильмы с его участием давно стали "культовыми", на них выросло не одно поколение людей. Спектакли театра им. Евгения Вахтангова с его участием собирают полные зрительные залы. Но это общеизвестная, как говорят, публичная жизнь актера. А есть еще и другой Лановой. Человек яркий, требовательный, увлекающийся, во что-то влюбленный, а к чему-то нетерпимый.
качество: SATRip
формат: AVI
Видео: 704x528 (1.33:1), 25 fps, XviD build 50 ~1899 kbps avg, 0.20 bit/pixel
Аудио: 48 kHz, MPEG Layer 3, 2 ch, ~128.00 kbps avg

MediaInfo

Complete name                            : C:\Users\Home\Desktop\временная\Вася высочество.Василий Лановой.2004.SATRip.avi
Format : AVI
Format/Info : Audio Video Interleave
File size : 562 MiB
Duration : 38mn 32s
Overall bit rate : 2 038 Kbps
Writing application : VirtualDubMod 1.5.10.3 | www.virtualdub-fr.org || (build 2550/release)
Writing library : VirtualDubMod build 2550/release
Video
ID : 0
Format : MPEG-4 Visual
Format profile : Advanced Simple@L5
Format settings, BVOP : 2
Format settings, QPel : No
Format settings, GMC : No warppoints
Format settings, Matrix : Default (MPEG)
Codec ID : XVID
Codec ID/Hint : XviD
Duration : 38mn 32s
Bit rate : 1 900 Kbps
Width : 704 pixels
Height : 528 pixels
Display aspect ratio : 4:3
Frame rate : 25.000 fps
Color space : YUV
Chroma subsampling : 4:2:0
Bit depth : 8 bits
Scan type : Progressive
Compression mode : Lossy
Bits/(Pixel*Frame) : 0.204
Stream size : 524 MiB (93%)
Writing library : XviD 1.2.1 (UTC 2008-12-04)
Audio
ID : 1
Format : MPEG Audio
Format version : Version 1
Format profile : Layer 3
Codec ID : 55
Codec ID/Hint : MP3
Duration : 38mn 32s
Bit rate mode : Constant
Bit rate : 128 Kbps
Channel count : 2 channels
Sampling rate : 48.0 KHz
Compression mode : Lossy
Stream size : 35.3 MiB (6%)
Alignment : Aligned on interleaves
Interleave, duration : 40 ms (1.00 video frame)
Interleave, preload duration : 504 ms
Writing library : LAME3.99r
Encoding settings : -m s -V 4 -q 2 -lowpass 17 -b 128

Скриншоты

[teatrix.ru].t21080.torrent 
Торрент: Зарегистрирован [ 2016-03-20 00:53 ] · DDB9D228A785588F1D46E2FEEC8297E5922FAE4C

Скачать .torrent

Скачать

11 KB

Статус: проверено
Скачан: 0 раз
Размер: 562 MB
terms.php



Быстрый ответ

Имя:

      
Для отправки сообщений необходимо включить JavaScript
Показать сообщения:    

Текущее время: 10-Дек 15:42

Часовой пояс: UTC + 3


Вы можете начинать темы
Вы можете отвечать на сообщения
Вы не можете редактировать свои сообщения
Вы не можете удалять свои сообщения
Вы не можете голосовать в опросах
Вы не можете прикреплять файлы к сообщениям
Вы можете скачивать файлы