(Classical) [LP] [24/48] Miron Polyakin - Violin / Мирон Полякин - Скрипка - Из Сокровищницы Мирового Исполнительского Искусства - 1980, FLAC (tracks+.cue)


Статистика раздачи [Обновить пиров]
Размер:  211 MB   |    Зарегистрирован:  8 месяцев 14 дней   |    Скачан:  0 раз

Полного источника не было: Никогда

 
   
 
 
 

[Цитировать]

Miron Polyakin - Violin / Мирон Полякин - Скрипка - Из Сокровищницы Мирового Исполнительского Искусства
Жанр: Classical
Носитель: LP
Год выпуска: 1980
Лейбл: Melodya (LSG)
Страна-производитель: USSR
Аудио кодек: FLAC
Тип рипа: tracks+.cue
Формат записи: 32/192
Формат раздачи: 24/48
Продолжительность: 40.54 min
Треклист:
Side one:
A. Glazunov
01. Concerto for Violin and Orchestra - In A Minor, Op. 82
Archives recording 1941
Side two:
P. Tchaikovsky
02. Melody - Op. 42 No. 3
L. Beethoven
Cadenza de Dunayevsky
03. Concerto for Violin and Orchestra - In D Major, Op. 61
movement 1.Adagio sostenuto
04. Sonata No. 9 for Violin and Piano - In A Major, Op. 47
Archives recordings 1936,1938
Vladimir Yampolsky, piano (1)
Heinrich Neuhaus, piano (3)
Источник оцифровки: автором раздачи
Код класса состояния винила: NM
Устройство воспроизведения: Электроника ЭП 017С
Головка звукоснимателя: Audio-Technica AT95
Предварительный усилитель: Бриг-001
АЦП: VIA HD audio device
Программа-оцифровщик: Izotope RX 4 Advanced
Обработка: Izotope RX 4 Advanced

Спектр+АЧХ+Уровень записи

DR=13

foobar2000 1.1.10 / Dynamic Range Meter 1.1.1
log date: 2015-05-03 13:59:40
--------------------------------------------------------------------------------
Analyzed: Miron Polyakin / The World's Leading Interpreters Of Music
--------------------------------------------------------------------------------
DR Peak RMS Duration Track
--------------------------------------------------------------------------------
DR15 -4.81 dB -23.78 dB 20:37 ?-Concerto for Violin and Orchestra - In A Minor, Op. 82
DR14 -6.67 dB -25.91 dB 3:13 ?-Melody - Op. 42 No. 3
DR12 -8.17 dB -24.84 dB 3:48 ?-Concerto for Violin and Orchestra - In D Major, Op. 61
DR12 -6.50 dB -22.55 dB 13:16 ?-Sonata No. 9 for Violin and Piano - In A Major, Op. 47
--------------------------------------------------------------------------------
Number of tracks: 4
Official DR value: DR13
Samplerate: 48000 Hz
Channels: 1
Bits per sample: 24
Bitrate: 681 kbps
Codec: FLAC
================================================================================

Back, Inner & Disc

[teatrix.ru].t21082.torrent 
Торрент: Зарегистрирован [ 2016-03-20 00:53 ] · 2D07E6CE79411FFBBFAED906A8B398F5FCC30245

Скачать .torrent

Скачать

18 KB

Статус: проверено
Скачан: 0 раз
Размер: 211 MB
terms.php



Быстрый ответ

Имя:

      
Для отправки сообщений необходимо включить JavaScript
Показать сообщения:    

Текущее время: 03-Дек 18:41

Часовой пояс: UTC + 3


Вы можете начинать темы
Вы можете отвечать на сообщения
Вы не можете редактировать свои сообщения
Вы не можете удалять свои сообщения
Вы не можете голосовать в опросах
Вы не можете прикреплять файлы к сообщениям
Вы можете скачивать файлы