(Classical) Orlando di Lasso (Lassus) · Villanelle, moresche e altre canzoni (Concerto Italiano, Rinaldo Alessandrini) · 1994, FLAC (tracks+.cue) lossless


 

[Цитировать]

Orlando di Lasso
Villanelle, moresche
e altre canzoni

Жанр: classical
Страна-производитель диска: France
Год издания диска: 1994
Издатель: Opus Production
Номер по каталогу: OPS 2-94
Дата записи: 1994
Аудиокодек: FLAC
Тип рипа: tracks+.cue
Битрейт аудио: lossless
Продолжительность: 00:59:05
Источник: скачано с what.cd
Наличие сканов в содержимом раздачи: да
Исполнители:
Concerto Italiano
Rinaldo Alessandrini direttore

Треклист

01. Allala, pia calia (2:37)
02. Saccio ’na cosa ch’è di legn’e tonda (0:40)
03. Lucia, celu, ahi, ahi, biscania (3:05)
04. S’io ve dico ca sete la chiù bella (0:48)
05. Ecco la nimph’Ebrayca chiamata (0:51)
06. Parch’hai lasciato de non t’affacciare? (2:54)
07. Io ti vorria contar la pena mia (1:09)
08. Hai, Lucia, bona cosa io dic’a tia (1:50)
09. Chichilichi? Cucurucu! (2:35)
10. Oh Lucia, miau, miau (1:42)
11. Ad altre le voi dare ste passate (0:50)
12. Tutto lo dì mi dici: canta, canta! (1:09)
13. Cathalina, apra finestra (4:15)
14. Tutto ’l dì piango (5:32)
15. Matona, mia cara, mi follere canzon (2:57)
16. S’io fusse ciaul’e tu lo campanile (1:55)
17. Ogni giorno m’han ditt’a chi favelli (1:24)
18. O belle fusa! chi ne vo’ accattare (0:44)
19. Madonna mia, pietà (5:15)
20. Canta Giorgia, canta (2:09)
21. S’io ti vedess’una sol volt’il giorno (1:24)
22. O occhi, manza mia, cigli dorati! (1:50)
23. Sol’ e pensoso i più deserti campi (4:25)
24. Tutto lo dì mi dici: canta, canta! (1:24)
25. Mi me chiamere Mistre Righe (2:12)
26. Ola, o che bon eccho! (1:14)
27. Zanni! Piasi, patro? (2:12)

Лог создания рипа

Exact Audio Copy V1.0 beta 3 from 29. August 2011
EAC extraction logfile from 6. March 2012, 4:40
Orlande de Lassus / Villanelle, Moresche e Altre Canzone - Alessandrini (1994 Opus 111)
Used drive : TSSTcorpCDDVDW TS-L633F Adapter: 0 ID: 1
Read mode : Secure
Utilize accurate stream : Yes
Defeat audio cache : Yes
Make use of C2 pointers : No
Read offset correction : 6
Overread into Lead-In and Lead-Out : No
Fill up missing offset samples with silence : Yes
Delete leading and trailing silent blocks : No
Null samples used in CRC calculations : Yes
Used interface : Native Win32 interface for Win NT & 2000
Gap handling : Appended to previous track
Used output format : User Defined Encoder
Selected bitrate : 1024 kBit/s
Quality : High
Add ID3 tag : No
Command line compressor : C:\Program Files (x86)\Exact Audio Copy\Flac\flac.exe
Additional command line options : -8 -V -T "ARTIST=%artist%" -T "TITLE=%title%" -T "ALBUM=%albumtitle%" -T "DATE=%year%" -T "TRACKNUMBER=%tracknr%" -T "GENRE=%genre%" -T "PERFORMER=%albuminterpret%" -T "COMPOSER=%composer%" %haslyrics%--tag-from-file=LYRICS="%lyricsfile%"%haslyrics% -T "ALBUMARTIST=%albumartist%" -T "DISCNUMBER=%cdnumber%" -T "TOTALDISCS=%totalcds%" -T "TOTALTRACKS=%numtracks%" -T "COMMENT=%comment%" %source% -o %dest%
TOC of the extracted CD
Track | Start | Length | Start sector | End sector
---------------------------------------------------------
1 | 0:00.00 | 2:37.10 | 0 | 11784
2 | 2:37.10 | 0:40.05 | 11785 | 14789
3 | 3:17.15 | 3:05.00 | 14790 | 28664
4 | 6:22.15 | 0:47.65 | 28665 | 32254
5 | 7:10.05 | 0:51.07 | 32255 | 36086
6 | 8:01.12 | 2:54.30 | 36087 | 49166
7 | 10:55.42 | 1:09.15 | 49167 | 54356
8 | 12:04.57 | 1:50.35 | 54357 | 62641
9 | 13:55.17 | 2:34.73 | 62642 | 74264
10 | 16:30.15 | 1:42.10 | 74265 | 81924
11 | 18:12.25 | 0:50.37 | 81925 | 85711
12 | 19:02.62 | 1:09.25 | 85712 | 90911
13 | 20:12.12 | 4:14.63 | 90912 | 110024
14 | 24:27.00 | 5:32.10 | 110025 | 134934
15 | 29:59.10 | 2:57.02 | 134935 | 148211
16 | 32:56.12 | 1:55.35 | 148212 | 156871
17 | 34:51.47 | 1:23.65 | 156872 | 163161
18 | 36:15.37 | 0:43.63 | 163162 | 166449
19 | 36:59.25 | 5:15.35 | 166450 | 190109
20 | 42:14.60 | 2:09.32 | 190110 | 199816
21 | 44:24.17 | 1:23.55 | 199817 | 206096
22 | 45:47.72 | 1:50.00 | 206097 | 214346
23 | 47:37.72 | 4:24.70 | 214347 | 234216
24 | 52:02.67 | 1:23.53 | 234217 | 240494
25 | 53:26.45 | 2:12.10 | 240495 | 250404
26 | 55:38.55 | 1:14.15 | 250405 | 255969
27 | 56:52.70 | 2:12.02 | 255970 | 265871
Track 1
Filename D:\R\Lassus - Villanelle, Moresche e Altre Canzoni - Alessandrini (1994 Opus 111)\01 - Allala, pia calia.wav
Pre-gap length 0:00:02.00
Peak level 55.7 %
Extraction speed 1.5 X
Track quality 100.0 %
Test CRC B9BA90B3
Copy CRC B9BA90B3
Accurately ripped (confidence 3) [81F71355] (AR v2)
Copy OK
Track 2
Filename D:\R\Lassus - Villanelle, Moresche e Altre Canzoni - Alessandrini (1994 Opus 111)\02 - Saccio 'na cosa ch'è di legn'e tonda.wav
Pre-gap length 0:00:02.97
Peak level 36.8 %
Extraction speed 1.0 X
Track quality 100.0 %
Test CRC 7A4F065D
Copy CRC 7A4F065D
Accurately ripped (confidence 3) [F5621AD8] (AR v2)
Copy OK
Track 3
Filename D:\R\Lassus - Villanelle, Moresche e Altre Canzoni - Alessandrini (1994 Opus 111)\03 - Lucia, celu, ahi, ahi, biscania.wav
Pre-gap length 0:00:02.74
Peak level 51.8 %
Extraction speed 1.7 X
Track quality 100.0 %
Test CRC F4447975
Copy CRC F4447975
Accurately ripped (confidence 3) [6D87C97A] (AR v2)
Copy OK
Track 4
Filename D:\R\Lassus - Villanelle, Moresche e Altre Canzoni - Alessandrini (1994 Opus 111)\04 - S'io ve dico ca sete la chiù bella.wav
Pre-gap length 0:00:03.37
Peak level 77.1 %
Extraction speed 1.2 X
Track quality 100.0 %
Test CRC 263C7A9E
Copy CRC 263C7A9E
Accurately ripped (confidence 3) [85C4AEA6] (AR v2)
Copy OK
Track 5
Filename D:\R\Lassus - Villanelle, Moresche e Altre Canzoni - Alessandrini (1994 Opus 111)\05 - Ecco la nimph'Ebrayca chiamata.wav
Pre-gap length 0:00:02.70
Peak level 60.3 %
Extraction speed 0.6 X
Track quality 99.7 %
Test CRC 935809CF
Copy CRC 935809CF
Accurately ripped (confidence 3) [F9393F13] (AR v2)
Copy OK
Track 6
Filename D:\R\Lassus - Villanelle, Moresche e Altre Canzoni - Alessandrini (1994 Opus 111)\06 - Parch'hai lasciato de non t'affacciare.wav
Pre-gap length 0:00:03.49
Peak level 50.8 %
Extraction speed 1.9 X
Track quality 100.0 %
Test CRC EE0FEE2B
Copy CRC EE0FEE2B
Accurately ripped (confidence 3) [5D763FBD] (AR v2)
Copy OK
Track 7
Filename D:\R\Lassus - Villanelle, Moresche e Altre Canzoni - Alessandrini (1994 Opus 111)\07 - Io ti vorria contar la pena mia.wav
Pre-gap length 0:00:02.46
Peak level 40.3 %
Extraction speed 1.5 X
Track quality 100.0 %
Test CRC 14D2AF4E
Copy CRC 14D2AF4E
Accurately ripped (confidence 3) [4B62D2FF] (AR v2)
Copy OK
Track 8
Filename D:\R\Lassus - Villanelle, Moresche e Altre Canzoni - Alessandrini (1994 Opus 111)\08 - Hai, Lucia, bona cosa io dic'a tia.wav
Pre-gap length 0:00:02.33
Peak level 54.5 %
Extraction speed 1.8 X
Track quality 100.0 %
Test CRC 7F03BBC2
Copy CRC 7F03BBC2
Accurately ripped (confidence 3) [A17C40D8] (AR v2)
Copy OK
Track 9
Filename D:\R\Lassus - Villanelle, Moresche e Altre Canzoni - Alessandrini (1994 Opus 111)\09 - Chichilichi Cucurucu!.wav
Pre-gap length 0:00:03.13
Peak level 82.0 %
Extraction speed 2.0 X
Track quality 100.0 %
Test CRC 1B4E50FE
Copy CRC 1B4E50FE
Accurately ripped (confidence 3) [0799BC25] (AR v2)
Copy OK
Track 10
Filename D:\R\Lassus - Villanelle, Moresche e Altre Canzoni - Alessandrini (1994 Opus 111)\10 - Oh Lucia, miau, miau.wav
Pre-gap length 0:00:02.70
Peak level 56.0 %
Extraction speed 1.9 X
Track quality 100.0 %
Test CRC 0C2B2978
Copy CRC 0C2B2978
Accurately ripped (confidence 3) [FC7D1CF2] (AR v2)
Copy OK
Track 11
Filename D:\R\Lassus - Villanelle, Moresche e Altre Canzoni - Alessandrini (1994 Opus 111)\11 - Ad altre le voi dare ste passate.wav
Pre-gap length 0:00:03.93
Peak level 35.2 %
Extraction speed 1.5 X
Track quality 100.0 %
Test CRC 71823FFD
Copy CRC 71823FFD
Accurately ripped (confidence 3) [EE9C91D0] (AR v2)
Copy OK
Track 12
Filename D:\R\Lassus - Villanelle, Moresche e Altre Canzoni - Alessandrini (1994 Opus 111)\12 - Tutto lo dì mi dici- canta, canta!.wav
Pre-gap length 0:00:02.22
Peak level 63.7 %
Extraction speed 1.7 X
Track quality 100.0 %
Test CRC B1313881
Copy CRC B1313881
Accurately ripped (confidence 3) [9EC0DA30] (AR v2)
Copy OK
Track 13
Filename D:\R\Lassus - Villanelle, Moresche e Altre Canzoni - Alessandrini (1994 Opus 111)\13 - Cathalina, apra finestra.wav
Pre-gap length 0:00:03.96
Peak level 73.6 %
Extraction speed 2.5 X
Track quality 100.0 %
Test CRC FEADD85A
Copy CRC FEADD85A
Accurately ripped (confidence 3) [B637BDAD] (AR v2)
Copy OK
Track 14
Filename D:\R\Lassus - Villanelle, Moresche e Altre Canzoni - Alessandrini (1994 Opus 111)\14 - Tutto 'l dì piango.wav
Pre-gap length 0:00:05.00
Peak level 54.0 %
Extraction speed 2.7 X
Track quality 100.0 %
Test CRC A4A311BA
Copy CRC A4A311BA
Accurately ripped (confidence 3) [64C78759] (AR v2)
Copy OK
Track 15
Filename D:\R\Lassus - Villanelle, Moresche e Altre Canzoni - Alessandrini (1994 Opus 111)\15 - Matona, mia cara, mi follere canzon.wav
Pre-gap length 0:00:04.10
Peak level 74.6 %
Extraction speed 2.6 X
Track quality 100.0 %
Test CRC 91B51B0A
Copy CRC 91B51B0A
Accurately ripped (confidence 3) [0FFC55FB] (AR v2)
Copy OK
Track 16
Filename D:\R\Lassus - Villanelle, Moresche e Altre Canzoni - Alessandrini (1994 Opus 111)\16 - S'io fusse ciaul'e tu lo campanile.wav
Pre-gap length 0:00:04.93
Peak level 73.9 %
Extraction speed 2.4 X
Track quality 100.0 %
Test CRC EC4477B0
Copy CRC EC4477B0
Accurately ripped (confidence 3) [FDF59679] (AR v2)
Copy OK
Track 17
Filename D:\R\Lassus - Villanelle, Moresche e Altre Canzoni - Alessandrini (1994 Opus 111)\17 - Ogni giorno m'han ditt'a chi favelli.wav
Pre-gap length 0:00:03.60
Peak level 45.8 %
Extraction speed 2.2 X
Track quality 100.0 %
Test CRC 1A78664F
Copy CRC 1A78664F
Accurately ripped (confidence 3) [017E0628] (AR v2)
Copy OK
Track 18
Filename D:\R\Lassus - Villanelle, Moresche e Altre Canzoni - Alessandrini (1994 Opus 111)\18 - O belle fusa! chi ne vo' accattare.wav
Pre-gap length 0:00:04.16
Peak level 38.3 %
Extraction speed 0.8 X
Track quality 99.7 %
Test CRC 6BBEB31B
Copy CRC 6BBEB31B
Accurately ripped (confidence 3) [89BA008C] (AR v2)
Copy OK
Track 19
Filename D:\R\Lassus - Villanelle, Moresche e Altre Canzoni - Alessandrini (1994 Opus 111)\19 - Madonna mia, pietà.wav
Pre-gap length 0:00:03.77
Peak level 50.0 %
Extraction speed 3.0 X
Track quality 100.0 %
Test CRC 2201121A
Copy CRC 2201121A
Accurately ripped (confidence 3) [15D062F9] (AR v2)
Copy OK
Track 20
Filename D:\R\Lassus - Villanelle, Moresche e Altre Canzoni - Alessandrini (1994 Opus 111)\20 - Canta Giorgia, canta.wav
Pre-gap length 0:00:04.64
Peak level 69.4 %
Extraction speed 2.7 X
Track quality 100.0 %
Test CRC D693FE9B
Copy CRC D693FE9B
Accurately ripped (confidence 3) [C7B868A1] (AR v2)
Copy OK
Track 21
Filename D:\R\Lassus - Villanelle, Moresche e Altre Canzoni - Alessandrini (1994 Opus 111)\21 - S'io ti vedess'una sol volt'il giorno.wav
Pre-gap length 0:00:03.60
Peak level 33.1 %
Extraction speed 2.5 X
Track quality 100.0 %
Test CRC 1F5FE73A
Copy CRC 1F5FE73A
Accurately ripped (confidence 3) [EE8FE421] (AR v2)
Copy OK
Track 22
Filename D:\R\Lassus - Villanelle, Moresche e Altre Canzoni - Alessandrini (1994 Opus 111)\22 - O occhi, manza mia, cigli dorati!.wav
Pre-gap length 0:00:03.16
Peak level 41.8 %
Extraction speed 2.6 X
Track quality 100.0 %
Test CRC F4F5D9E0
Copy CRC F4F5D9E0
Accurately ripped (confidence 3) [73350FFD] (AR v2)
Copy OK
Track 23
Filename D:\R\Lassus - Villanelle, Moresche e Altre Canzoni - Alessandrini (1994 Opus 111)\23 - Sol' e pensoso i più deserti campi.wav
Pre-gap length 0:00:05.53
Peak level 53.5 %
Extraction speed 2.5 X
Track quality 99.9 %
Test CRC 6962FE48
Copy CRC 6962FE48
Accurately ripped (confidence 3) [33808476] (AR v2)
Copy OK
Track 24
Filename D:\R\Lassus - Villanelle, Moresche e Altre Canzoni - Alessandrini (1994 Opus 111)\24 - Tutto lo dì mi dici- canta, canta!.wav
Pre-gap length 0:00:03.00
Peak level 41.2 %
Extraction speed 2.6 X
Track quality 100.0 %
Test CRC 47C720E6
Copy CRC 47C720E6
Accurately ripped (confidence 3) [A11A7773] (AR v2)
Copy OK
Track 25
Filename D:\R\Lassus - Villanelle, Moresche e Altre Canzoni - Alessandrini (1994 Opus 111)\25 - Mi me chiamere Mistre Righe.wav
Pre-gap length 0:00:03.50
Peak level 42.7 %
Extraction speed 2.0 X
Track quality 99.9 %
Test CRC 25A35D90
Copy CRC 25A35D90
Accurately ripped (confidence 3) [78C2A3EE] (AR v2)
Copy OK
Track 26
Filename D:\R\Lassus - Villanelle, Moresche e Altre Canzoni - Alessandrini (1994 Opus 111)\26 - Ola, o che bon eccho!.wav
Pre-gap length 0:00:03.46
Peak level 47.0 %
Extraction speed 2.5 X
Track quality 100.0 %
Test CRC D1C10A7D
Copy CRC D1C10A7D
Accurately ripped (confidence 3) [2C33A325] (AR v2)
Copy OK
Track 27
Filename D:\R\Lassus - Villanelle, Moresche e Altre Canzoni - Alessandrini (1994 Opus 111)\27 - Zanni! Piasi, patro.wav
Pre-gap length 0:00:03.84
Peak level 57.8 %
Extraction speed 3.0 X
Track quality 100.0 %
Test CRC 1CE3A088
Copy CRC 1CE3A088
Accurately ripped (confidence 3) [F1E922BD] (AR v2)
Copy OK
All tracks accurately ripped
No errors occurred
End of status report
---- CUETools DB Plugin V2.1.3
[CTDB TOCID: 0QU2_RKoxH4Duamj1YKDup_NeAg-] disk not present in database, Submit result: 0QU2_RKoxH4Duamj1YKDup_NeAg- has been uploaded
==== Log checksum 7D8A9E40D30D0DD776BBD8BE26518D7FF1A8B1593FF609FC8ED278277242E438 ====

Содержание индексной карты (.CUE)

REM DATE 1994
REM DISCID 8F0DD81B
REM COMMENT "ExactAudioCopy v1.0b3"
PERFORMER "Concerto Italiano · Rinaldo Alessandrini"
TITLE "Villanelle, moresche e altre canzoni"
FILE "01. Allala, pia calia.wav" WAVE
TRACK 01 AUDIO
TITLE "Allala, pia calia"
PERFORMER "Concerto Italiano · Rinaldo Alessandrini"
INDEX 01 00:00:00
TRACK 02 AUDIO
TITLE "Saccio ’na cosa ch’è di legn’e tonda"
PERFORMER "Concerto Italiano · Rinaldo Alessandrini"
INDEX 00 02:34:12
FILE "02. Saccio ’na cosa ch’è di legn’e tonda.wav" WAVE
INDEX 01 00:00:00
TRACK 03 AUDIO
TITLE "Lucia, celu, ahi, ahi, biscania"
PERFORMER "Concerto Italiano · Rinaldo Alessandrini"
INDEX 00 00:37:24
FILE "03. Lucia, celu, ahi, ahi, biscania.wav" WAVE
INDEX 01 00:00:00
TRACK 04 AUDIO
TITLE "S’io ve dico ca sete la chiù bella"
PERFORMER "Concerto Italiano · Rinaldo Alessandrini"
INDEX 00 03:01:47
FILE "04. S’io ve dico ca sete la chiù bella.wav" WAVE
INDEX 01 00:00:00
TRACK 05 AUDIO
TITLE "Ecco la nimph’Ebrayca chiamata"
PERFORMER "Concerto Italiano · Rinaldo Alessandrini"
INDEX 00 00:45:12
FILE "05. Ecco la nimph’Ebrayca chiamata.wav" WAVE
INDEX 01 00:00:00
TRACK 06 AUDIO
TITLE "Parch’hai lasciato de non t’affacciare?"
PERFORMER "Concerto Italiano · Rinaldo Alessandrini"
INDEX 00 00:47:45
FILE "06. Parch’hai lasciato de non t’affacciare..wav" WAVE
INDEX 01 00:00:00
TRACK 07 AUDIO
TITLE "Io ti vorria contar la pena mia"
PERFORMER "Concerto Italiano · Rinaldo Alessandrini"
INDEX 00 02:51:70
FILE "07. Io ti vorria contar la pena mia.wav" WAVE
INDEX 01 00:00:00
TRACK 08 AUDIO
TITLE "Hai, Lucia, bona cosa io dic’a tia"
PERFORMER "Concerto Italiano · Rinaldo Alessandrini"
INDEX 00 01:06:65
FILE "08. Hai, Lucia, bona cosa io dic’a tia.wav" WAVE
INDEX 01 00:00:00
TRACK 09 AUDIO
TITLE "Chichilichi? Cucurucu!"
PERFORMER "Concerto Italiano · Rinaldo Alessandrini"
INDEX 00 01:47:25
FILE "09. Chichilichi. Cucurucu!.wav" WAVE
INDEX 01 00:00:00
TRACK 10 AUDIO
TITLE "Oh Lucia, miau, miau"
PERFORMER "Concerto Italiano · Rinaldo Alessandrini"
INDEX 00 02:32:20
FILE "10. Oh Lucia, miau, miau.wav" WAVE
INDEX 01 00:00:00
TRACK 11 AUDIO
TITLE "Ad altre le voi dare ste passate"
PERFORMER "Concerto Italiano · Rinaldo Alessandrini"
INDEX 00 01:38:15
FILE "11. Ad altre le voi dare ste passate.wav" WAVE
INDEX 01 00:00:00
TRACK 12 AUDIO
TITLE "Tutto lo dì mi dici: canta, canta!"
PERFORMER "Concerto Italiano · Rinaldo Alessandrini"
INDEX 00 00:48:20
FILE "12. Tutto lo dì mi dici. canta, canta!.wav" WAVE
INDEX 01 00:00:00
TRACK 13 AUDIO
TITLE "Cathalina, apra finestra"
PERFORMER "Concerto Italiano · Rinaldo Alessandrini"
INDEX 00 01:05:28
FILE "13. Cathalina, apra finestra.wav" WAVE
INDEX 01 00:00:00
TRACK 14 AUDIO
TITLE "Tutto ’l dì piango"
PERFORMER "Concerto Italiano · Rinaldo Alessandrini"
INDEX 00 04:09:63
FILE "14. Tutto ’l dì piango.wav" WAVE
INDEX 01 00:00:00
TRACK 15 AUDIO
TITLE "Matona, mia cara, mi follere canzon"
PERFORMER "Concerto Italiano · Rinaldo Alessandrini"
INDEX 00 05:28:02
FILE "15. Matona, mia cara, mi follere canzon.wav" WAVE
INDEX 01 00:00:00
TRACK 16 AUDIO
TITLE "S’io fusse ciaul’e tu lo campanile"
PERFORMER "Concerto Italiano · Rinaldo Alessandrini"
INDEX 00 02:52:07
FILE "16. S’io fusse ciaul’e tu lo campanile.wav" WAVE
INDEX 01 00:00:00
TRACK 17 AUDIO
TITLE "Ogni giorno m’han ditt’a chi favelli"
PERFORMER "Concerto Italiano · Rinaldo Alessandrini"
INDEX 00 01:51:65
FILE "17. Ogni giorno m’han ditt’a chi favelli.wav" WAVE
INDEX 01 00:00:00
TRACK 18 AUDIO
TITLE "O belle fusa! chi ne vo’ accattare"
PERFORMER "Concerto Italiano · Rinaldo Alessandrini"
INDEX 00 01:19:53
FILE "18. O belle fusa! chi ne vo’ accattare.wav" WAVE
INDEX 01 00:00:00
TRACK 19 AUDIO
TITLE "Madonna mia, pietа"
PERFORMER "Concerto Italiano · Rinaldo Alessandrini"
INDEX 00 00:40:05
FILE "19. Madonna mia, pietа.wav" WAVE
INDEX 01 00:00:00
TRACK 20 AUDIO
TITLE "Canta Giorgia, canta"
PERFORMER "Concerto Italiano · Rinaldo Alessandrini"
INDEX 00 05:10:62
FILE "20. Canta Giorgia, canta.wav" WAVE
INDEX 01 00:00:00
TRACK 21 AUDIO
TITLE "S’io ti vedess’una sol volt’il giorno"
PERFORMER "Concerto Italiano · Rinaldo Alessandrini"
INDEX 00 02:05:62
FILE "21. S’io ti vedess’una sol volt’il giorno.wav" WAVE
INDEX 01 00:00:00
TRACK 22 AUDIO
TITLE "O occhi, manza mia, cigli dorati!"
PERFORMER "Concerto Italiano · Rinaldo Alessandrini"
INDEX 00 01:20:43
FILE "22. O occhi, manza mia, cigli dorati!.wav" WAVE
INDEX 01 00:00:00
TRACK 23 AUDIO
TITLE "Sol’ e pensoso i più deserti campi"
PERFORMER "Concerto Italiano · Rinaldo Alessandrini"
INDEX 00 01:44:35
FILE "23. Sol’ e pensoso i più deserti campi.wav" WAVE
INDEX 01 00:00:00
TRACK 24 AUDIO
TITLE "Tutto lo dì mi dici: canta, canta!"
PERFORMER "Concerto Italiano · Rinaldo Alessandrini"
INDEX 00 04:21:70
FILE "24. Tutto lo dì mi dici. canta, canta!.wav" WAVE
INDEX 01 00:00:00
TRACK 25 AUDIO
TITLE "Mi me chiamere Mistre Righe"
PERFORMER "Concerto Italiano · Rinaldo Alessandrini"
INDEX 00 01:20:15
FILE "25. Mi me chiamere Mistre Righe.wav" WAVE
INDEX 01 00:00:00
TRACK 26 AUDIO
TITLE "Ola, o che bon eccho!"
PERFORMER "Concerto Italiano · Rinaldo Alessandrini"
INDEX 00 02:08:50
FILE "26. Ola, o che bon eccho!.wav" WAVE
INDEX 01 00:00:00
TRACK 27 AUDIO
TITLE "Zanni! Piasi, patro?"
PERFORMER "Concerto Italiano · Rinaldo Alessandrini"
INDEX 00 01:10:27
FILE "27. Zanni! Piasi, patro..wav" WAVE
INDEX 01 00:00:00



Показать сообщения:    

Текущее время: 05-Дек 21:39

Часовой пояс: UTC + 3


Вы не можете начинать темы
Вы не можете отвечать на сообщения
Вы не можете редактировать свои сообщения
Вы не можете удалять свои сообщения
Вы не можете голосовать в опросах
Вы не можете прикреплять файлы к сообщениям
Вы не можете скачивать файлы