Обложка (1-7 фильмы) [2015, Документальный, биография, политика, история, SATRip]


Статистика раздачи [Обновить пиров]
Размер:  2.12 GB   |    Зарегистрирован:  8 месяцев 19 дней   |    Скачан:  0 раз

Полного источника не было: Никогда

 
   
 
 
 

[Цитировать]

Обложка (1-7 фильмы)
Дата/Год выпуска: 2015
Страна: Россия, ОАО "ТВ Центр"
Жанр: Документальный, биография, политика, история
Продолжительность: ~ 00:25:30
Перевод: Не требуется
Русские субтитры: нет
Описание: Один беглый взгляд, и обложка журнала переносит нас в другую эпоху, вовлекает в какие-то события. Она словно открывает дверь в человеческую драму или тайны истории. И в нашей, и в зарубежной прессе было много снимков, за которыми стоят невероятные истории – и в судьбах конкретных людей, и в жизни всей страны… Герои фотографий, обошедших весь мир – в документальном цикле "Обложка" .
качество: SATRip
формат: AVI
Видео: 25 fps, XviD build 50 ~1495 kbps avg, 0.21 bit/pixel, 704х400, 704х448
Аудио: 48 kHz, MPEG Layer 3, 2 ch, ~128.00 kbps avg

Описание фильмов

01. 19 марта 2015 - На прахе Сталина
В очередном выпуске из цикла "Обложка" история манекенщицы Галины Миловской, сфотографировавшейся для журнала Vogue на Красной площади. Едва снимок перепечатал журнал "Америка", издающийся в СССР, Миловскую обвинили в том, что она позорит страну: сидит в неподобающей позе спиной к Кремлю, чуть ли не на прахе Сталина! Миловскую выдворили из страны. Как сложилась её дальнейшая жизнь?
02. 26 марта 2015 - Американский пирог Хрущёва
Первая поездка в США стала незабываемым вояжем советского лидера Никиты Сергеевича Хрущёва – он впервые увидел канкан, покатался на "Кадиллаке", выпил пепси-колы и познакомился с Мэрилин Монро… Его жена не узнала Фрэнка Синатру и все подшучивали над её деревенскими нарядами. Но зато Хрущёв "убил" всех рассказами о ядерной мощи Советского Союза.
03. 02 апреля 2015 - Пришествие Майкла Джексона
Во время визита Майкла Джексона в Москву появились фотографии, где он выступает в роли "верховного главнокомандующего", приветствуя ряды российских солдат. Певцу устроили "парад" в Таманской дивизии, а вот трибуны на его концерте были полупустыми. Так конкуренты отомстили устроителю концерта...
04. 10 апреля 2015 - Советский фотошоп"
Советский фотошоп работал исключительно в политических целях... А в сталинское время и вовсе применяли "пальмирование", вымарывая из снимков неугодных людей, заменяя их, к примеру, пальмой в кадке.
05. 17 апреля 2015 - Мусульманин
Он не знал, что его фотография попала на обложку Daily Telegraph и о том, что его история поразила весь мир. Жизнь Алексея Оленина – абсолютная "калька" сценария фильма "Мусульманин". В 1982 году рядовой Оленин попал в афганский плен. 12 лет он был на волосок от смерти, под пытками был вынужден принять ислам и жениться на местной девушке. Путь домой был сложным, а Родина совсем его не ждала…
06. 23 апреля 2015 - Влюблённый нищий
На родине Джо Маури назвали предателем, позором нации и советским шпионом. И никто не знал, ради чего он на самом деле сотрудничал с журналистами. В "империю зла" его привела большая любовь…
07.14 мая 2015 - Главная жена страны
Украинцы не одобрили появление Марины Порошенко на обложке ELLE во время начала войны на востоке страны и тяжелейших испытаний для Украины после смены власти. Как, на каких условиях и зачем первые леди попадают на обложки престижного глянца? Как на это реагируют их мужья и страны?

MediaInfo

Complete name                            : C:\Users\Home\Desktop\Обложка.2015.SATRip\Обложка.Советский фотошоп.2015.SATRip.avi
Format : AVI
Format/Info : Audio Video Interleave
File size : 309 MiB
Duration : 26mn 28s
Overall bit rate : 1 633 Kbps
Writing application : VirtualDubMod 1.5.10.3 | www.virtualdub-fr.org || (build 2550/release)
Writing library : VirtualDubMod build 2550/release
Video
ID : 0
Format : MPEG-4 Visual
Format profile : Advanced Simple@L5
Format settings, BVOP : 2
Format settings, QPel : No
Format settings, GMC : No warppoints
Format settings, Matrix : Default (MPEG)
Codec ID : XVID
Codec ID/Hint : XviD
Duration : 26mn 28s
Bit rate : 1 495 Kbps
Width : 704 pixels
Height : 448 pixels
Display aspect ratio : 16:10
Frame rate : 25.000 fps
Color space : YUV
Chroma subsampling : 4:2:0
Bit depth : 8 bits
Scan type : Progressive
Compression mode : Lossy
Bits/(Pixel*Frame) : 0.190
Stream size : 283 MiB (92%)
Writing library : XviD 1.2.1 (UTC 2008-12-04)
Audio
ID : 1
Format : MPEG Audio
Format version : Version 1
Format profile : Layer 3
Codec ID : 55
Codec ID/Hint : MP3
Duration : 26mn 28s
Bit rate mode : Constant
Bit rate : 128 Kbps
Channel count : 2 channels
Sampling rate : 48.0 KHz
Compression mode : Lossy
Stream size : 24.2 MiB (8%)
Alignment : Aligned on interleaves
Interleave, duration : 40 ms (1.00 video frame)
Interleave, preload duration : 504 ms
Writing library : LAME3.99r
Encoding settings : -m s -V 4 -q 2 -lowpass 17 -b 128

Скриншоты

[teatrix.ru].t21086.torrent 
Торрент: Зарегистрирован [ 2016-03-20 00:53 ] · B4524F74A1FD631E8DDEF9C31D84006B150FAFB8

Скачать .torrent

Скачать

44 KB

Статус: проверено
Скачан: 0 раз
Размер: 2.12 GB
terms.php



Быстрый ответ

Имя:

      
Для отправки сообщений необходимо включить JavaScript
Показать сообщения:    

Текущее время: 08-Дек 19:08

Часовой пояс: UTC + 3


Вы можете начинать темы
Вы можете отвечать на сообщения
Вы не можете редактировать свои сообщения
Вы не можете удалять свои сообщения
Вы не можете голосовать в опросах
Вы не можете прикреплять файлы к сообщениям
Вы можете скачивать файлы