Следы остаются (Владимир Осипов) [1982 г., криминальный детектив, телеспектакль, экранизация, TVRip]


 

[Цитировать]

Следы остаются Год выпуска: 1982.
Жанр: криминальный детектив, телеспектакль, экранизация.
Продолжительность: 01:49:27.
Режиссер-постановщик: Владимир Осипов.
Действующие лица и исполнители:
Солдатов - заслуженный артист РСФСР Александр Демьяненко,
Галенко - заслуженный артист РСФСР Михаил Матвеев,
Боровик - Кирилл Датешидзе,
Юра Калугин - Саша Манин,
Калугина - Галина Фигловская,
Кухарев - заслуженный артист РСФСР Игорь Тихоненко,
Мухин - заслуженный артист РСФСР Иван Краско,
Муромцев - заслуженный артист РСФСР Владимир Особик,
Шахов - Алексей Булдаков,
Медвецкая - заслуженная артистка РСФСР Валентина Панина,
Белкин - Игорь Гранат,
Верка-тараторка - заслуженная артистка РСФСР Елена Драпеко,
Галкина - заслуженная артистка РСФСР Елизавета Акуличева,
Мартынов - Сергей Кошонин,
Петухов - Г. Муравьев.
Описание:
По повести Владимира Чванова "Кража".
О правовом и нравственном воспитании молодежи. В спектакле раскрываются психологические аспекты профессии сотрудника уголовного розыска. Основная мысль - не ужесточение наказаний, а прежде всего борьба с причинами и обстоятельствами, порождающими преступления. Автор делает упор на личную ответственность человека за совершенное преступление.

Дополнительная информация:
Страна: СССР .
Выпущено: © Ленинградское телевидение.
Автор: Владимир Чванов.
Автор сценария: Юрий Алешин.
Композитор: Станислав Пожлаков.
Художник: Евгений Останин.
Операторы: Андрей Гусак, Вадим Берзин, Ю. Зуев, Дмитрий Медведев.

Релиз

Качество: TVRip
Формат: AVI
Видео: 640x480 (1.33:1), 24.000 fps, XviD MPEG-4 ~1768 kbps avg, 0.24 bit/pixel
Аудио: 48 kHz, MPEG Layer 3, 2 ch, ~128.00 kbps avg

Отчет MI

Общее
Полное имя : Sledy.ostayutsya.1982.XviD.TVRip.fenixclub.avi
Формат : AVI
Формат/Информация : Audio Video Interleave
Размер файла : 1,46 Гбайт
Продолжительность : 1 ч. 49 м.
Общий поток : 1906 Кбит/сек
Программа кодирования : VirtualDubModRus 1.5.10.2 (build 2542/release)
Библиотека кодирования : VirtualDub build 32842/release
Видео
Идентификатор : 0
Формат : MPEG-4 Visual
Профиль формата : Advanced Simple@L5
Параметр BVOP формата : 2
Параметр QPel формата : Нет
Параметр GMC формата : Без точки перехода
Параметр матрицы формата : Default (H.263)
Режим смешивания : Сжатый битовый поток
Идентификатор кодека : XVID
Идентификатор кодека/Подсказка : XviD
Продолжительность : 1 ч. 49 м.
Битрейт : 1769 Кбит/сек
Ширина : 640 пикселей
Высота : 480 пикселей
Соотношение сторон : 4:3
Частота кадров : 24,000 кадра/сек
Цветовое пространство : YUV
Субдискретизация насыщенности : 4:2:0
Битовая глубина : 8 бит
Тип развёртки : Прогрессивная
Метод сжатия : С потерями
Бит/(Пиксели*Кадры) : 0.240
Размер потока : 1,35 Гбайт (93%)
Библиотека кодирования : XviD 73
Аудио
Идентификатор : 1
Формат : MPEG Audio
Версия формата : Version 1
Профиль формата : Layer 3
Режим : Joint stereo
Расширение режима : MS Stereo
Идентификатор кодека : 55
Идентификатор кодека/Подсказка : MP3
Продолжительность : 1 ч. 49 м.
Вид битрейта : Постоянный
Битрейт : 128 Кбит/сек
Каналы : 2 канала
Частота : 48,0 КГц
Метод сжатия : С потерями
Размер потока : 100 Мбайт (7%)
Выравнивание : Разделение по промежуткам
Продолжительность промежутка : 42 мс. (1,00 видеокадр)
Время предзагрузки промежутка : 500 мс.
Библиотека кодирования : LAME3.98.2

Скриншоты


Альтернативный хост





Показать сообщения:    

Текущее время: 04-Дек 04:59

Часовой пояс: UTC + 3


Вы не можете начинать темы
Вы не можете отвечать на сообщения
Вы не можете редактировать свои сообщения
Вы не можете удалять свои сообщения
Вы не можете голосовать в опросах
Вы не можете прикреплять файлы к сообщениям
Вы не можете скачивать файлы