Леонид Быков. Улыбка маэстро (Фуад Шабанов) [2008, Документальный, биография, искусство, SATRip]


Статистика раздачи [Обновить пиров]
Размер:  588 MB   |    Зарегистрирован:  8 месяцев 21 день   |    Скачан:  0 раз

Полного источника не было: Никогда

 
   
 
 
 

[Цитировать]

Леонид Быков. Улыбка маэстро
Дата/Год выпуска: 2008
Страна: Россия, ОАО "Первый канал"
Жанр: Документальный, биография, искусство
Продолжительность: 00:44:44
Перевод: Не требуется
Русские субтитры: нет
Режиссер: Фуад Шабанов
Описание: О жизни и смерти легендарного актера Леонида Быкова. Всю жизнь — и с дружеских посиделок, и из командировок, и со съемок Леонид Быков спешил домой, к семье. Семья была для него надежным тылом, источником сил и вдохновения. А после его смерти нечистоплотные журналисты, используя свидетельства псевдодрузей актера, назвали жену, сына и дочь Быкова сумасшедшими. В нашей программе дочь Леонида Быкова — Марьяна Быкова впервые за 28 лет со дня гибели отца дает интервью центральному каналу. 11 апреля 1979 года Леонид Быков возвращался на своей «Волге» с дачи под Киевом. Перед ним двигался асфальтовый каток. Как только он начал обгон, навстречу выскочил грузовик. Чтобы избежать лобового столкновения, Леонид Быков вывернул руль в сторону и на всей скорости врезался в каток. Леонид Быков погиб по дороге домой. Была ли случайной его смерть? Есть несколько версий. В фильме принимают участие: Марьяна Быкова, Владимир Савченко — кинодраматург и друг Быкова, Николай Мащенко — кинорежиссер и друг Быкова, Сергей Подгорный — актер, Владимир Конкин — актер, Светлана Дружинина — актриса, Ольга Красина — актриса.
качество: SATRip
формат: AVI
Видео: 704x448 (1.57:1), 25 fps, XviD build 50 ~1699 kbps avg, 0.22 bit/pixel
Аудио: 48 kHz, MPEG Layer 3, 2 ch, ~128.00 kbps avg

MediaInfo

Complete name                            : D:\TV\Леонид Быков.Улыбка маэстро.2008.SATRip.avi
Format : AVI
Format/Info : Audio Video Interleave
File size : 588 MiB
Duration : 44mn 44s
Overall bit rate : 1 838 Kbps
Writing application : VirtualDubMod 1.5.10.3 | www.virtualdub-fr.org || (build 2550/release)
Writing library : VirtualDubMod build 2550/release
Video
ID : 0
Format : MPEG-4 Visual
Format profile : Advanced Simple@L5
Format settings, BVOP : 2
Format settings, QPel : No
Format settings, GMC : No warppoints
Format settings, Matrix : Default (MPEG)
Codec ID : XVID
Codec ID/Hint : XviD
Duration : 44mn 44s
Bit rate : 1 700 Kbps
Width : 704 pixels
Height : 448 pixels
Display aspect ratio : 16:10
Frame rate : 25.000 fps
Color space : YUV
Chroma subsampling : 4:2:0
Bit depth : 8 bits
Scan type : Progressive
Compression mode : Lossy
Bits/(Pixel*Frame) : 0.216
Stream size : 544 MiB (93%)
Writing library : XviD 1.2.1 (UTC 2008-12-04)
Audio
ID : 1
Format : MPEG Audio
Format version : Version 1
Format profile : Layer 3
Codec ID : 55
Codec ID/Hint : MP3
Duration : 44mn 44s
Bit rate mode : Constant
Bit rate : 128 Kbps
Channel count : 2 channels
Sampling rate : 48.0 KHz
Compression mode : Lossy
Stream size : 41.0 MiB (7%)
Alignment : Aligned on interleaves
Interleave, duration : 40 ms (1.00 video frame)
Interleave, preload duration : 504 ms
Writing library : LAME3.99r
Encoding settings : -m s -V 4 -q 2 -lowpass 17 -b 128

Скриншоты

[teatrix.ru].t21091.torrent 
Торрент: Зарегистрирован [ 2016-03-20 00:53 ] · 7AF4FBD8188AC3EB9B7C7DB9E77E0F898E644A30

Скачать .torrent

Скачать

12 KB

Статус: проверено
Скачан: 0 раз
Размер: 588 MB
terms.php



Быстрый ответ

Имя:

      
Для отправки сообщений необходимо включить JavaScript
Показать сообщения:    

Текущее время: 10-Дек 19:36

Часовой пояс: UTC + 3


Вы можете начинать темы
Вы можете отвечать на сообщения
Вы не можете редактировать свои сообщения
Вы не можете удалять свои сообщения
Вы не можете голосовать в опросах
Вы не можете прикреплять файлы к сообщениям
Вы можете скачивать файлы