[TR24][OF] П.И. Чайковский: Симфония № 6 "Патетическая" / P. Tchaikovsky: Symphony No.6 "Pathétique" - Lisa Batiashvili, Rotterdam Philharmonic Orchestra, Yannick Nézet-Séguin (Nezet-Seguin) - 2014 (Classical)

DL-List and Torrent activity [Update пиров]
Size:  1.06 GB   |    Registered:  7 months 4 days   |    Completed:  0 times

Seeder not seen: Never



P. Tchaikovsky
Lisa Batiashvili · Rotterdam Philharmonic Orchestra · Yannick Nézet-Séguin
- Год издания: 2014
Жанр: Classical
Издатель (лейбл): Deutsche Grammophon
Продолжительность: 01:04:33
Наличие сканов: Sleeve, Digital Booklet- -
Pyotr Ilyich Tchaikovsky (1840-1893)
Symphony No.6 In B Minor, Op.74 "Pathétique"
01. 1. Adagio - Allegro non troppo (18:33)
02. 2. Allegro con grazia (7:40)
03. 3. Allegro molto vivace (8:10)
04. 4. Finale: Adagio lamentoso - Andante (10:24)
Romances, Op.6
05. No.1 (3:43)
06. No.2 (2:37)
07. No.5 (2:24)
08. No.6 (3:12)
Romances, Op. 73
09. No.2 (3:32)
10. No.4 (1:44)
11. No.6 (2:33)
Контейнер: FLAC (*.flac)
Тип рипа: tracks
Разрядность: 24bit / 96kHz
Количество каналов: 2.0
-О релизе
Only the Best
The dynamic young French-Canadian conductor records the symphony that has played a central role in his remarkable career. Yannick Nézet-Séguin first heard it live in Montreal at the age of eight. It was the work he chose for his debut with both the Orchestre Métropolitain du Grand Montréal and the Philadelphia Orchestra.
Conducting this quintessentially Russian music with the Rotterdam Philharmonic acknowledges his predecessor on the podium, Valery Gergiev, as well as showcasing the depth and refinement of the Dutch orchestra’s rich textures.
Yannick Nézet-Séguin admires Tchaikovsky not just as a composer of heart-breaking melodies but also as a master symphonist. “The point for me is this work’s pervasive lust for life, and the lack of faith in humanity which is the implicit message of the end.”
The symphony is accompanied by two sets of Tchaikovsky’s songs, in arrangements for piano and violin. Yannick Nézet-Séguin at the piano is joined by star violinist Lisa Batiashvili, whose understanding of the original Russian texts colours her interpretation.
At just 37, Yannick Nézet-Séguin is a driving force on the international music scene. He has conducted operas at The Metropolitan, Covent Garden and the Salzburg Festival and concerts with many of the world’s leading orchestras. Music Director of the Rotterdam Philharmonic and the Philadelphia Orchestra, he signed a long-term recording contract with Deutsche Grammophon in June 2012.
Rotterdam Philharmonic Orchestra
Yannick Nézet-Séguin, conductor
Lisa Batiashvili, violin (on tracks 05-11)
Yannick Nézet-Séguin, piano (on tracks 05-11)
Recordings: Rotterdam, De Doelen, Grote Zaal, 8/2012 (Symphony);
Hilversum, Muziekcentrum van de Omroep (MCO) Studio 5, 11/2012 (Romances)

ОтчётыДинамический диапазон

foobar2000 1.2.2 / Dynamic Range Meter 1.1.1
log date: 2015-05-04 13:32:36
Analyzed: Lisa Batiashvili, Yannick Nézet-Séguin / Tchaikovsky: Pathétique (1-7)
Rotterdam Philharmonic Orchestra & Yannick Nézet-Séguin / Tchaikovsky: Pathétique (8-11)
DR Peak RMS Duration Track
DR14 -7.07 dB -30.30 dB 3:43 ?-Romances, Op.6 - No.1
DR13 -9.47 dB -29.84 dB 2:37 ?-Romances, Op.6 - No.2
DR11 -9.16 dB -26.48 dB 2:24 ?-Romances, Op.6 - No.5
DR15 -5.84 dB -29.66 dB 3:12 ?-Romances, Op.6 - No.6
DR16 -8.12 dB -31.86 dB 3:32 ?-Romances, Op. 73 - No.2
DR12 -10.11 dB -26.95 dB 1:44 ?-Romances, Op. 73 - No.4
DR14 -7.51 dB -29.22 dB 2:33 ?-Romances, Op. 73 - No.6
DR15 -0.60 dB -22.55 dB 18:33 ?-Symphony No.6 In B Minor, Op.74 -"Pathétique" - 1. Adagio - Allegro non troppo
DR16 -6.05 dB -27.12 dB 7:40 ?-Symphony No.6 In B Minor, Op.74 -"Pathétique" - 2. Allegro con grazia
DR15 -0.56 dB -20.30 dB 8:10 ?-Symphony No.6 In B Minor, Op.74 -"Pathétique" - 3. Allegro molto vivace
DR16 -1.05 dB -23.89 dB 10:24 ?-Symphony No.6 In B Minor, Op.74 -"Pathétique" - 4. Finale: Adagio lamentoso - Andante
Number of tracks: 11
Official DR value: DR14
Samplerate: 96000 Hz
Channels: 2
Bits per sample: 24
Bitrate: 2254 kbps
Codec: FLAC

Скриншот спектра частот

Доп. информация

При скачивании, если необходимо, переименуйте папку, в которой будет находиться альбомБольшая просьба к скачавшим поддерживать раздачу! Помогайте другим, ведь вам тоже может понадобиться помощь!Не забываем говорить "Спасибо"!Комментарии приветствуются!
Torrent: Registered [ 2016-03-20 00:53 ] · E4B48E24A8856702F617A0C5D9787A54131D3F95

Download .torrent


12 KB

Status: checked
Completed: 0 times
Size: 1.06 GB

Quick Reply


Heads necessary to send messages to enable JavaScript
Display posts:    

Current time is: 24-Oct 11:50

All times are UTC + 3

You can post new topics in this forum
You can reply to topics in this forum
You cannot edit your posts in this forum
You cannot delete your posts in this forum
You cannot vote in polls in this forum
You cannot attach files in this forum
You can download files in this forum