(Classical) [LP] [24/48] Valeria Barsova - Soprano/Валерия Барсова - Из Сокровищницы Мирового Исполнительского Искусства - 1980, FLAC (tracks+.cue)


Статистика раздачи [Обновить пиров]
Размер:  238 MB   |    Зарегистрирован:  8 месяцев 21 день   |    Скачан:  0 раз

Полного источника не было: Никогда

 
   
 
 
 

[Цитировать]

Valeria Barsova - Soprano/Валерия Барсова - Из Сокровищницы Мирового Исполнительского Искусства
Жанр: Classical
Носитель: LP
Год выпуска: 1980
Лейбл: Melodya (VSG)
Страна-производитель: USSR
Аудио кодек: FLAC
Тип рипа: tracks+.cue
Формат записи: 32/192
Формат раздачи: 24/48
Продолжительность: 46.08 min
Треклист:
Side One:
G. Rossini
01. Rosina's Cavatina (Il Barbiere di Siviglia, Act I)
02. Neapolitan Tarantella
CH. Gounod
03. Waltz of Juliette
V. Masse
04. Jeannette's Aria
A. Thomas
05. Philine's Polonaise
L. Arditi
06. Waltz
Berlin Opera Orchestra, Conductor F. Weissman
Archives recordings 1929
Side Two:
D. Auber
07. Zerlina's Aria
M. Glinka
08. Ludmila's Cavatina
N. Rimsky-Korsakov
09. Aria of Queen Swan
10. Marfa's Aria
Bolshoi Theatre Orchestra
Conductors: S. Samosud (1,2), V. Nebolsin (3,4)
Archives recordings 1950
Источник оцифровки: автором раздачи
Код класса состояния винила: NM
Устройство воспроизведения: Электроника ЭП 017С
Головка звукоснимателя: Audio-Technica AT95
Предварительный усилитель: Бриг-001
АЦП: VIA HD audio device
Программа-оцифровщик: Izotope RX 4 Advanced
Обработка: Izotope RX 4 Advanced

Спектр+АЧХ+Уровень записи

DR=13

foobar2000 1.1.10 / Dynamic Range Meter 1.1.1
log date: 2015-05-04 17:19:17
--------------------------------------------------------------------------------
Analyzed: Valeria Barsova / The World's Leading Interpreters Of Music
--------------------------------------------------------------------------------
DR Peak RMS Duration Track
--------------------------------------------------------------------------------
DR15 -0.73 dB -20.08 dB 6:25 ?-Rosina's Cavatina (Il Barbiere di Siviglia, Act I)
DR14 -2.68 dB -19.70 dB 2:48 ?-Neapolitan Tarantella
DR14 -3.30 dB -21.35 dB 3:22 ?-Waltz of Juliette
DR14 -4.06 dB -22.25 dB 4:18 ?-Jeannette's Aria
DR14 -1.82 dB -20.05 dB 4:08 ?-Philine's Polonaise
DR13 -2.29 dB -19.24 dB 2:50 ?-Waltz
DR11 -0.96 dB -17.76 dB 4:01 ?-Zerlina's Aria
DR12 -1.80 dB -17.12 dB 8:06 ?-Ludmila's Cavatina
DR8 -5.02 dB -18.95 dB 3:39 ?-Aria of Queen Swan
DR11 -5.78 dB -21.33 dB 6:32 ?-Marfa's Aria
--------------------------------------------------------------------------------
Number of tracks: 10
Official DR value: DR13
Samplerate: 48000 Hz
Channels: 1
Bits per sample: 24
Bitrate: 689 kbps
Codec: FLAC
================================================================================

Back, Inner & Disc



[teatrix.ru].t21095.torrent 
Торрент: Зарегистрирован [ 2016-03-20 00:53 ] · F57AE55D089B9D88324B6F6E43929FF5F5712572

Скачать .torrent

Скачать

20 KB

Статус: проверено
Скачан: 0 раз
Размер: 238 MB
terms.php



Быстрый ответ

Имя:

      
Для отправки сообщений необходимо включить JavaScript
Показать сообщения:    

Текущее время: 10-Дек 21:33

Часовой пояс: UTC + 3


Вы можете начинать темы
Вы можете отвечать на сообщения
Вы не можете редактировать свои сообщения
Вы не можете удалять свои сообщения
Вы не можете голосовать в опросах
Вы не можете прикреплять файлы к сообщениям
Вы можете скачивать файлы