(Classical / Piano / Orchestral) Модест Мусоргский - Картинки с выставки / Modest Mussorgsky - Pictures at an Exhibition (Alfred Brendel, Wiener Philharmoniker, Andre Previn, 1985) - 1994, FLAC (tracks+.cue) lossless


 

[Цитировать]

Modest Mussorgsky | Модест Мусоргский
(1839–1881)



Картинки с выставки (фортепианная и оркестровая версии)
Pictures at an Exhibition (piano and orchestral versions)


Alfred Brendel piano
Wiener Philharmoniker
André Previn conductor


Жанр: Classical / Piano / Orchestral
Дата записи: 1985
Формат записи: DDD, Stereo
Год издания диска: 1994
Издатель (лейбл): Philips
Номер по каталогу: 442 650-2
Аудиокодек: FLAC
Тип рипа: tracks+.cue
Битрейт аудио: lossless
Продолжительность: 1:07:26
Наличие сканов в содержимом раздачи: нет
Источник: What.CD
Релизёр: hemminm

-Tracklist / Треклист
Картинки с выставки (оригинальная версия) - 33:51
Прогулка - 1:32
  • I. Гном - 2:26
  • Прогулка - 0:51
  • II. Старый замок - 4:57
  • Прогулка - 0:30
  • III. Тюильрийский сад (ссора детей после игры) - 0:58
  • IV. Быдло - 2:56
  • Прогулка - 0:43
  • V. Балет невылупившихся птенцов - 1:04
  • VI. Самуэль Гольденберг и Шмуйле - 2:17
  • Прогулка - 1:25
  • VII. Лимож. Рынок (большая новость) - 1:23
  • VIII. Катакомбы. Римская гробница - 1:57
  • С мёртвыми на мёртвом языке - 2:21
  • IX. Избушка на курьих ножках (Баба-Яга) - 3:21
  • X. Богатырские ворота (в стольном городе во Киеве) - 5:11
    Recorded: July 1985
    Картинки с выставки (оркестровка Мориса Равеля) - 33:35
    Прогулка - 1:38
  • I. Гном - 2:35
  • Прогулка - 1:02
  • II. Старый замок - 4:25
  • Прогулка - 0:32
  • III. Тюильрийский сад (ссора детей после игры) - 1:02
  • IV. Быдло - 2:39
  • Прогулка - 0:42
  • V. Балет невылупившихся птенцов - 1:15
  • VI. Самуэль Гольденберг и Шмуйле - 2:24
  • VII. Лимож. Рынок (большая новость) - 1:27
  • VIII. Катакомбы. Римская гробница - 2:15
  • С мёртвыми на мёртвом языке - 2:02
  • IX. Избушка на курьих ножках (Баба-Яга) - 3:32
  • X. Богатырские ворота (в стольном городе во Киеве) - 6:06
    Recorded: April 1985-

    EAC log / Отчёт EAC

    Exact Audio Copy V1.0 beta 3 from 29. August 2011
    EAC extraction logfile from 2. May 2015, 10:23
    Mussorgsky, Modest / Pictures at an Exhibition
    Used drive : MATSHITADVD-RAM UJ8C0 Adapter: 0 ID: 0
    Read mode : Secure
    Utilize accurate stream : Yes
    Defeat audio cache : Yes
    Make use of C2 pointers : No
    Read offset correction : 103
    Overread into Lead-In and Lead-Out : No
    Fill up missing offset samples with silence : Yes
    Delete leading and trailing silent blocks : No
    Null samples used in CRC calculations : Yes
    Used interface : Native Win32 interface for Win NT & 2000
    Gap handling : Appended to previous track
    Used output format : User Defined Encoder
    Selected bitrate : 1024 kBit/s
    Quality : High
    Add ID3 tag : No
    Command line compressor : C:\Program Files (x86)\Exact Audio Copy\Flac\flac.exe
    Additional command line options : -8 -V -T "ARTIST=%artist%" -T "TITLE=%title%" -T "ALBUM=%albumtitle%" -T "DATE=%year%" -T "TRACKNUMBER=%tracknr%" -T "GENRE=%genre%" -T "PERFORMER=%albuminterpret%" -T "COMPOSER=%composer%" %haslyrics%--tag-from-file=LYRICS="%lyricsfile%"%haslyrics% -T "ALBUMARTIST=%albumartist%" -T "DISCNUMBER=%cdnumber%" -T "TOTALDISCS=%totalcds%" -T "TOTALTRACKS=%numtracks%" -T "COMMENT=%comment%" %source% -o %dest%
    TOC of the extracted CD
    Track | Start | Length | Start sector | End sector
    ---------------------------------------------------------
    1 | 0:00.33 | 1:32.12 | 33 | 6944
    2 | 1:32.45 | 2:25.63 | 6945 | 17882
    3 | 3:58.33 | 0:50.62 | 17883 | 21694
    4 | 4:49.20 | 4:57.13 | 21695 | 43982
    5 | 9:46.33 | 0:29.50 | 43983 | 46207
    6 | 10:16.08 | 0:58.00 | 46208 | 50557
    7 | 11:14.08 | 2:56.25 | 50558 | 63782
    8 | 14:10.33 | 0:42.50 | 63783 | 66982
    9 | 14:53.08 | 1:04.25 | 66983 | 71807
    10 | 15:57.33 | 2:17.00 | 71808 | 82082
    11 | 18:14.33 | 1:24.50 | 82083 | 88432
    12 | 19:39.08 | 1:23.00 | 88433 | 94657
    13 | 21:02.08 | 1:57.00 | 94658 | 103432
    14 | 22:59.08 | 2:21.12 | 103433 | 114019
    15 | 25:20.20 | 3:20.38 | 114020 | 129057
    16 | 28:40.58 | 5:10.50 | 129058 | 152357
    17 | 33:51.33 | 1:38.00 | 152358 | 159707
    18 | 35:29.33 | 2:35.00 | 159708 | 171332
    19 | 38:04.33 | 1:02.00 | 171333 | 175982
    20 | 39:06.33 | 4:25.00 | 175983 | 195857
    21 | 43:31.33 | 0:31.62 | 195858 | 198244
    22 | 44:03.20 | 1:02.13 | 198245 | 202907
    23 | 45:05.33 | 2:39.00 | 202908 | 214832
    24 | 47:44.33 | 0:41.62 | 214833 | 217969
    25 | 48:26.20 | 1:15.13 | 217970 | 223607
    26 | 49:41.33 | 2:24.00 | 223608 | 234407
    27 | 52:05.33 | 1:26.62 | 234408 | 240919
    28 | 53:32.20 | 2:14.50 | 240920 | 251019
    29 | 55:46.70 | 2:01.38 | 251020 | 260132
    30 | 57:48.33 | 3:31.62 | 260133 | 276019
    31 | 61:20.20 | 6:06.13 | 276020 | 303482
    Track 1
    Filename C:\Users\micha_000\Music\CDEX\01 - Promenade.wav
    Pre-gap length 0:00:02.44
    Peak level 69.6 %
    Extraction speed 1.2 X
    Track quality 100.0 %
    Test CRC 094C82C3
    Copy CRC 094C82C3
    Accurately ripped (confidence 15) [0F5BC1AF] (AR v2)
    Copy OK
    Track 2
    Filename C:\Users\micha_000\Music\CDEX\02 - Gnomus.wav
    Peak level 91.2 %
    Extraction speed 1.4 X
    Track quality 100.0 %
    Test CRC 497EDFAC
    Copy CRC 497EDFAC
    Accurately ripped (confidence 15) [03BEFB5F] (AR v2)
    Copy OK
    Track 3
    Filename C:\Users\micha_000\Music\CDEX\03 - Promenade.wav
    Pre-gap length 0:00:01.00
    Peak level 26.8 %
    Extraction speed 1.0 X
    Track quality 100.0 %
    Test CRC 514E0BD7
    Copy CRC 514E0BD7
    Accurately ripped (confidence 15) [B7343A79] (AR v2)
    Copy OK
    Track 4
    Filename C:\Users\micha_000\Music\CDEX\04 - Il vecchio castello (The Old Castle).wav
    Peak level 37.0 %
    Extraction speed 1.8 X
    Track quality 100.0 %
    Test CRC 0CFBC4FB
    Copy CRC 0CFBC4FB
    Accurately ripped (confidence 15) [799ED5F9] (AR v2)
    Copy OK
    Track 5
    Filename C:\Users\micha_000\Music\CDEX\05 - Promenade.wav
    Pre-gap length 0:00:01.00
    Peak level 79.2 %
    Extraction speed 0.9 X
    Track quality 100.0 %
    Test CRC 9486DF3B
    Copy CRC 9486DF3B
    Accurately ripped (confidence 15) [AAA684C5] (AR v2)
    Copy OK
    Track 6
    Filename C:\Users\micha_000\Music\CDEX\06 - The Tuileries Gardens.wav
    Peak level 51.8 %
    Extraction speed 1.3 X
    Track quality 100.0 %
    Test CRC B6157210
    Copy CRC B6157210
    Accurately ripped (confidence 15) [916BA33E] (AR v2)
    Copy OK
    Track 7
    Filename C:\Users\micha_000\Music\CDEX\07 - Bydlo.wav
    Peak level 84.4 %
    Extraction speed 1.8 X
    Track quality 100.0 %
    Test CRC 68B683BA
    Copy CRC 68B683BA
    Accurately ripped (confidence 15) [9B5640C4] (AR v2)
    Copy OK
    Track 8
    Filename C:\Users\micha_000\Music\CDEX\08 - Promenade.wav
    Peak level 63.4 %
    Extraction speed 1.2 X
    Track quality 100.0 %
    Test CRC 9E9DA0E0
    Copy CRC 9E9DA0E0
    Accurately ripped (confidence 15) [0534E6A1] (AR v2)
    Copy OK
    Track 9
    Filename C:\Users\micha_000\Music\CDEX\09 - Ballet of the Chickens in their Shells.wav
    Peak level 53.3 %
    Extraction speed 1.4 X
    Track quality 100.0 %
    Test CRC C2578E8E
    Copy CRC C2578E8E
    Accurately ripped (confidence 15) [749FF796] (AR v2)
    Copy OK
    Track 10
    Filename C:\Users\micha_000\Music\CDEX\10 - Samuel Goldenberg and Schmuyle.wav
    Peak level 73.1 %
    Extraction speed 1.8 X
    Track quality 100.0 %
    Test CRC 6C9C18B5
    Copy CRC 6C9C18B5
    Accurately ripped (confidence 15) [FA41CDB9] (AR v2)
    Copy OK
    Track 11
    Filename C:\Users\micha_000\Music\CDEX\11 - Promenade.wav
    Peak level 72.3 %
    Extraction speed 1.3 X
    Track quality 99.8 %
    Test CRC E9BE40DC
    Copy CRC E9BE40DC
    Accurately ripped (confidence 15) [2B3FB73C] (AR v2)
    Copy OK
    Track 12
    Filename C:\Users\micha_000\Music\CDEX\12 - The Market-place at Limoges.wav
    Peak level 83.7 %
    Extraction speed 1.3 X
    Track quality 99.8 %
    Test CRC BC923A47
    Copy CRC BC923A47
    Accurately ripped (confidence 15) [04140BEF] (AR v2)
    Copy OK
    Track 13
    Filename C:\Users\micha_000\Music\CDEX\13 - Catacombae (Sepulchrum romanum) (The Catacombes) (Alfred Brendel, piano).wav
    Peak level 84.6 %
    Extraction speed 1.9 X
    Track quality 100.0 %
    Test CRC E96C95A0
    Copy CRC E96C95A0
    Accurately ripped (confidence 15) [D8AD2C01] (AR v2)
    Copy OK
    Track 14
    Filename C:\Users\micha_000\Music\CDEX\14 - Cum mortuis in lingua mortua.wav
    Peak level 28.7 %
    Extraction speed 2.0 X
    Track quality 100.0 %
    Test CRC DDC2BCFE
    Copy CRC DDC2BCFE
    Accurately ripped (confidence 15) [22326780] (AR v2)
    Copy OK
    Track 15
    Filename C:\Users\micha_000\Music\CDEX\15 - The Hut on Fowl's Legs (Baba-Yaga).wav
    Peak level 94.4 %
    Extraction speed 2.0 X
    Track quality 99.9 %
    Test CRC B5A5B042
    Copy CRC B5A5B042
    Accurately ripped (confidence 15) [DB65447B] (AR v2)
    Copy OK
    Track 16
    Filename C:\Users\micha_000\Music\CDEX\16 - The Great Gate of Kiev.wav
    Peak level 98.9 %
    Extraction speed 2.5 X
    Track quality 100.0 %
    Test CRC 83A50570
    Copy CRC 83A50570
    Accurately ripped (confidence 15) [A0593800] (AR v2)
    Copy OK
    Track 17
    Filename C:\Users\micha_000\Music\CDEX\17 - Promenade.wav
    Pre-gap length 0:00:09.00
    Peak level 94.5 %
    Extraction speed 2.1 X
    Track quality 100.0 %
    Test CRC 485BDFEF
    Copy CRC 485BDFEF
    Accurately ripped (confidence 15) [C2B6D4AF] (AR v2)
    Copy OK
    Track 18
    Filename C:\Users\micha_000\Music\CDEX\18 - Gnomus.wav
    Peak level 99.1 %
    Extraction speed 2.0 X
    Track quality 99.9 %
    Test CRC A021E27F
    Copy CRC A021E27F
    Accurately ripped (confidence 15) [562D895D] (AR v2)
    Copy OK
    Track 19
    Filename C:\Users\micha_000\Music\CDEX\19 - Promenade.wav
    Peak level 9.2 %
    Extraction speed 1.8 X
    Track quality 100.0 %
    Test CRC 1F47B4EB
    Copy CRC 1F47B4EB
    Accurately ripped (confidence 15) [2CB1340A] (AR v2)
    Copy OK
    Track 20
    Filename C:\Users\micha_000\Music\CDEX\20 - Il vecchio castello (The Old Castle).wav
    Peak level 29.1 %
    Extraction speed 2.7 X
    Track quality 100.0 %
    Test CRC EE9C667D
    Copy CRC EE9C667D
    Accurately ripped (confidence 15) [DE79292B] (AR v2)
    Copy OK
    Track 21
    Filename C:\Users\micha_000\Music\CDEX\21 - Promenade.wav
    Peak level 53.7 %
    Extraction speed 1.4 X
    Track quality 100.0 %
    Test CRC FEF4314C
    Copy CRC FEF4314C
    Accurately ripped (confidence 15) [E9AF8BDD] (AR v2)
    Copy OK
    Track 22
    Filename C:\Users\micha_000\Music\CDEX\22 - The Tuileries Gardens.wav
    Peak level 47.6 %
    Extraction speed 1.9 X
    Track quality 100.0 %
    Test CRC 2D9D334E
    Copy CRC 2D9D334E
    Accurately ripped (confidence 15) [F30B58A4] (AR v2)
    Copy OK
    Track 23
    Filename C:\Users\micha_000\Music\CDEX\23 - Bydlo.wav
    Peak level 87.7 %
    Extraction speed 2.2 X
    Track quality 99.9 %
    Test CRC F390CB1F
    Copy CRC F390CB1F
    Accurately ripped (confidence 15) [FFAEA86C] (AR v2)
    Copy OK
    Track 24
    Filename C:\Users\micha_000\Music\CDEX\24 - Promenade.wav
    Peak level 34.9 %
    Extraction speed 1.1 X
    Track quality 99.7 %
    Test CRC 1AA91073
    Copy CRC 1AA91073
    Accurately ripped (confidence 15) [77E7ED02] (AR v2)
    Copy OK
    Track 25
    Filename C:\Users\micha_000\Music\CDEX\25 - Ballet of the Chickens in their Shells.wav
    Peak level 19.4 %
    Extraction speed 2.2 X
    Track quality 100.0 %
    Test CRC F9F7EC8F
    Copy CRC F9F7EC8F
    Accurately ripped (confidence 15) [B53021BA] (AR v2)
    Copy OK
    Track 26
    Filename C:\Users\micha_000\Music\CDEX\26 - Samuel Goldenberg and Schmuyle.wav
    Peak level 57.9 %
    Extraction speed 2.6 X
    Track quality 100.0 %
    Test CRC 639BFE9C
    Copy CRC 639BFE9C
    Accurately ripped (confidence 15) [5AF1951F] (AR v2)
    Copy OK
    Track 27
    Filename C:\Users\micha_000\Music\CDEX\27 - The Market-place at Limoges.wav
    Pre-gap length 0:00:01.00
    Peak level 66.2 %
    Extraction speed 2.3 X
    Track quality 100.0 %
    Test CRC 351357CC
    Copy CRC 351357CC
    Accurately ripped (confidence 15) [D2FD9C1A] (AR v2)
    Copy OK
    Track 28
    Filename C:\Users\micha_000\Music\CDEX\28 - The Catacombs (Sepulchrum romanum) (The Catacombes).wav
    Peak level 96.0 %
    Extraction speed 2.6 X
    Track quality 100.0 %
    Test CRC E7654E37
    Copy CRC E7654E37
    Accurately ripped (confidence 14) [7E1DE07E] (AR v2)
    Copy OK
    Track 29
    Filename C:\Users\micha_000\Music\CDEX\29 - Cum mortuis in lingua mortua.wav
    Peak level 6.9 %
    Extraction speed 2.1 X
    Track quality 99.9 %
    Test CRC 3B0D1EF2
    Copy CRC 3B0D1EF2
    Accurately ripped (confidence 14) [3931156F] (AR v2)
    Copy OK
    Track 30
    Filename C:\Users\micha_000\Music\CDEX\30 - The Hut on Fowl's Legs (Baba-Yaga).wav
    Peak level 96.4 %
    Extraction speed 2.6 X
    Track quality 99.9 %
    Test CRC 60DC3250
    Copy CRC 60DC3250
    Accurately ripped (confidence 15) [3A3CE852] (AR v2)
    Copy OK
    Track 31
    Filename C:\Users\micha_000\Music\CDEX\31 - The Great Gate of Kiev.wav
    Peak level 97.0 %
    Extraction speed 3.0 X
    Track quality 99.9 %
    Test CRC CA7514C7
    Copy CRC CA7514C7
    Accurately ripped (confidence 15) [72A02C85] (AR v2)
    Copy OK
    All tracks accurately ripped
    No errors occurred
    End of status report
    ==== Log checksum A7EFE83136DA8E6343B052C31B2A830952F89C0A3279B98FEF11357B995EF040 ====

    auCDtect Task Manager log / Отчёт auCDtect Task Manager

    -----------------------
    DON'T MODIFY THIS FILE
    -----------------------
    PERFORMER: auCDtect Task Manager, ver. 1.5.1RC3 build 1.5.1.4
    Copyright (c) 2008-2010 y-soft. All rights reserved
    ANALYZER: auCDtect: CD records authenticity detector, version 0.8.2
    Copyright (c) 2004 Oleg Berngardt. All rights reserved.
    Copyright (c) 2004 Alexander Djourik. All rights reserved.
    FILE: 29 - Pictures at an Exhibition (orch. by Ravel) - Cum mortuis in lingua mortua.flac
    Size: 5873308 Hash: 79111C53C9FDBADC5BB59700FC95791D Accuracy: -m0
    Conclusion: CDDA 100%
    Signature: 234C1FFA89B5E77C17CA6DB18BC76B8256CBEF86
    FILE: 28 - Pictures at an Exhibition (orch. by Ravel) - VIII. Catacombae. Sepulcrum romanum.flac
    Size: 8336025 Hash: 5F3B7F753D6775DE02791197B997D60B Accuracy: -m0
    Conclusion: CDDA 100%
    Signature: F867846985ADDD2E75124F1A38C102EAA434EBB5
    FILE: 27 - Pictures at an Exhibition (orch. by Ravel) - VII. Limoges, le marche (La grande nouvelle).flac
    Size: 7304335 Hash: 0643AE382799807F0C5E999BB2B6CDB8 Accuracy: -m0
    Conclusion: CDDA 100%
    Signature: C19776D415360D92A601A04E2C869CF5FB30EE76
    FILE: 26 - Pictures at an Exhibition (orch. by Ravel) - VI. Samuel Goldenberg und Schmuyle. - Promenade.flac
    Size: 11485603 Hash: 1190EFF4FF749093665817F5D7DB638C Accuracy: -m0
    Conclusion: CDDA 100%
    Signature: D391A766DF0D128ADB283BD169BEDCA67DB82FC3
    FILE: 25 - Pictures at an Exhibition (orch. by Ravel) - V. Ballet of the Unhatched Chicks.flac
    Size: 4689210 Hash: 2A352002AC84E459396E934EF6D03543 Accuracy: -m0
    Conclusion: CDDA 100%
    Signature: F449ABC74F6ECA3BE4AF9586570AC0F54002CFFF
    FILE: 24 - Pictures at an Exhibition (orch. by Ravel) - Promenade.flac
    Size: 2570365 Hash: 0A32783BFA3D10C689BE7492E8C9211D Accuracy: -m0
    Conclusion: CDDA 100%
    Signature: 45DF9BF92AA71E3D37792AF4BDB64B620A991881
    FILE: 23 - Pictures at an Exhibition (orch. by Ravel) - IV. Bydlo.flac
    Size: 10257029 Hash: 3348946ED641B7CA8BE8926555848860 Accuracy: -m0
    Conclusion: CDDA 100%
    Signature: F94C558BF4DF7C242D52C7D8E3EBC670543D50EC
    FILE: 22 - Pictures at an Exhibition (orch. by Ravel) - III. Tuileries (dispute d'enfants apres jeux).flac
    Size: 3777675 Hash: 85C3E8A15CE6F7C86E5F3C74EE0F1112 Accuracy: -m0
    Conclusion: CDDA 100%
    Signature: D62E99FFCEE30705E886438F677C83C92D27CB42
    FILE: 21 - Pictures at an Exhibition (orch. by Ravel) - Promenade.flac
    Size: 2303751 Hash: E0770A063E8737F7EB3F227A4C0AC384 Accuracy: -m0
    Conclusion: CDDA 100%
    Signature: 38006552B1E06993776CA76350960437B012C92B
    FILE: 20 - Pictures at an Exhibition (orch. by Ravel) - II. Il vecchio castello.flac
    Size: 14141868 Hash: 37A9F1A879EF1AD6711333FE1EC81044 Accuracy: -m0
    Conclusion: CDDA 100%
    Signature: 822C1141C8520C6D6B48DF8C767AA4A5DB710E6A
    FILE: 19 - Pictures at an Exhibition (orch. by Ravel) - Promenade.flac
    Size: 3185785 Hash: 20CF63928E94251EAAB106ECED1B6FE3 Accuracy: -m0
    Conclusion: CDDA 100%
    Signature: 425DD7AF4895EE66EED7071FCF491E3752592899
    FILE: 18 - Pictures at an Exhibition (orch. by Ravel) - I. Gnomus.flac
    Size: 10789624 Hash: 2AFA2EB170614C1FA2D8C17C8C0A3EE3 Accuracy: -m0
    Conclusion: CDDA 100%
    Signature: 4C84D27AD78C1E9C385CFDC4909303CC8C18A930
    FILE: 17 - Pictures at an Exhibition (orch. by Ravel) - Promenade.flac
    Size: 7609321 Hash: 6E48EB989EF9A5303C0333AA6F1DF9F9 Accuracy: -m0
    Conclusion: CDDA 99%
    Signature: 9D63AF347CBED1DB737A2A9EA967152B508B3E74
    FILE: 16 - Pictures at an Exhibition - X. The Bogatyr Gates (in the Capital in Kiev).flac
    Size: 18164712 Hash: FDB117D24415F3B7DF7E6B15E7B3B699 Accuracy: -m0
    Conclusion: CDDA 43%
    Signature: 6B66C36C2ECEFBC451D0F9FA5778A13742778D87
    FILE: 15 - Pictures at an Exhibition - IX. The Hut on Fowl's Legs (Baba-Yaga).flac
    Size: 12172223 Hash: 9F4B83F5D9DA0777326B771C5F3D6066 Accuracy: -m0
    Conclusion: MPEG 89%
    Signature: C526360FE07873CA547B0B216777FFE067FD0E90
    FILE: 14 - Pictures at an Exhibition - Cum mortuis in lingua mortua.flac
    Size: 6073155 Hash: A617228B120B5FFA1120E75A808171B8 Accuracy: -m0
    Conclusion: CDDA 49%
    Signature: CAACB99AE1CD17F7D203E814CF61BF6CFE903E2D
    FILE: 13 - Pictures at an Exhibition - VIII. Catacombae. Sepulcrum romanum.flac
    Size: 4837139 Hash: 4583244200859CB0DB96C74D0CC080D4 Accuracy: -m0
    Conclusion: CDDA 100%
    Signature: 261074839F14C46150B89FCDA15F9DFE3C6E0313
    FILE: 12 - Pictures at an Exhibition - VII. Limoges, le marche (La grande nouvelle).flac
    Size: 5379948 Hash: BD8AB8654BD0D7D11E72DA2A82F4E71C Accuracy: -m0
    Conclusion: MPEG 100%
    Signature: C3DCF6EDC14C04A9CBCC030AA8B6F5C9FB75AD9C
    FILE: 11 - Pictures at an Exhibition - Promenade.flac
    Size: 4987953 Hash: E39CEE861F70DA21658400E98798942E Accuracy: -m0
    Conclusion: MPEG 90%
    Signature: 38BD22229C71043592C6F19EE4AF30419640EBCE
    FILE: 10 - Pictures at an Exhibition - VI. Samuel Goldenberg und Schmuyle.flac
    Size: 6996948 Hash: C8F6FE6372A7A9F0A3E4BBF2C7E84153 Accuracy: -m0
    Conclusion: CDDA 49%
    Signature: E897497574A8DA30D17BDE6D735EDED40B048A82
    FILE: 09 - Pictures at an Exhibition - V. Ballet of the Unhatched Chicks.flac
    Size: 3145993 Hash: 2F7B60F9B39A7124623472688F24C677 Accuracy: -m0
    Conclusion: CDDA 43%
    Signature: EF9B210B04C7B66B2E591844E73528A8DF57F04F
    FILE: 08 - Pictures at an Exhibition - Promenade.flac
    Size: 2024958 Hash: 77EAC1EE122CE6B2170A28DE782DC1C5 Accuracy: -m0
    Conclusion: MPEG 89%
    Signature: CC5037D1AC24692F5B69ED29981AA09A9266EDBC
    FILE: 07 - Pictures at an Exhibition - IV. Bydlo.flac
    Size: 9188499 Hash: 15317EE933ABD43C0EA04201134D0C69 Accuracy: -m0
    Conclusion: CDDA 43%
    Signature: EEB72974AAD77DED788A8A26BF2EA1E918065E7E
    FILE: 06 - Pictures at an Exhibition - III. Tuileries (dispute d'enfants apres jeux).flac
    Size: 2879285 Hash: EFE7A893B375CE3DFD5C75139B79FD9C Accuracy: -m0
    Conclusion: MPEG 89%
    Signature: 9574AF75576D9C76CB2F75356E8C63A0DADB98C3
    FILE: 05 - Pictures at an Exhibition - Promenade.flac
    Size: 1607613 Hash: ADAD48680838BB55D10A4C96219F1440 Accuracy: -m0
    Conclusion: CDDA 42%
    Signature: 2BDC8F9847326677FAF7981FAB8AEBFE61341978
    FILE: 04 - Pictures at an Exhibition - II. Il vecchio castello.flac
    Size: 11876582 Hash: 4983539A5D88AD17D712CC088966BA01 Accuracy: -m0
    Conclusion: CDDA 76%
    Signature: 3DDF7500B8EF11D45CC13EE30FED783F65779528
    FILE: 03 - Pictures at an Exhibition - Promenade.flac
    Size: 2067064 Hash: DFF1703E5AF3B4574087DB7820E792CC Accuracy: -m0
    Conclusion: CDDA 100%
    Signature: 62BBBC3299A608DEE9401C7DC942AE6FD5281B41
    FILE: 02 - Pictures at an Exhibition - I. Gnomus.flac
    Size: 7363623 Hash: 69C7AC34F9465B00C3C05CCCDA33246C Accuracy: -m0
    Conclusion: CDDA 85%
    Signature: 23D124761B3EAECE73983CEA5ADDD1B2D42A1A3A
    FILE: 01 - Pictures at an Exhibition - Promenade.flac
    Size: 5048790 Hash: 993FD188D3A4479F63411B97196BB9FF Accuracy: -m0
    Conclusion: MPEG 80%
    Signature: A59FC2B03C4CF6E891D92BD398A7C8D94C09F472
    FILE: 31 - Pictures at an Exhibition (orch. by Ravel) - X. The Bogatyr Gates (in the Capital in Kiev).flac
    Size: 31229628 Hash: F8C8DA51278A70509920436B5FBE1E34 Accuracy: -m0
    Conclusion: CDDA 100%
    Signature: 2723CE8E082FCEA8C91C831D83979CF835462A8B
    FILE: 30 - Pictures at an Exhibition (orch. by Ravel) - IX. The Hut on Fowl's Legs (Baba-Yaga).flac
    Size: 15031954 Hash: FD4BA99E3244592BE27DDC671C0916BD Accuracy: -m0
    Conclusion: CDDA 100%
    Signature: 534DFCE46EA6FF054987B39D88E291E7AF4011BE

    CUETools log / Отчёт CUETools

    [CUETools log; Date: 04.05.2015 21:35:48; Version: 2.1.4]
    Pregap length 00:00:33.
    [AccurateRip ID: 00445d60-05edf63a-c80fce1f] found.
    Track [ CRC | V2 ] Status
    01 [fb6162fc|0f5bc1af] (14+15/66) Accurately ripped
    02 [ec0a90f5|03befb5f] (15+15/67) Accurately ripped
    03 [a4c88e92|b7343a79] (15+15/67) Accurately ripped
    04 [e0756083|799ed5f9] (15+15/66) Accurately ripped
    05 [e048d4f1|aaa684c5] (15+15/67) Accurately ripped
    06 [0f442f9a|916ba33e] (15+15/67) Accurately ripped
    07 [4be565ec|9b5640c4] (15+15/67) Accurately ripped
    08 [40c818b4|0534e6a1] (15+15/67) Accurately ripped
    09 [4a082dc0|749ff796] (15+15/67) Accurately ripped
    10 [2495df6d|fa41cdb9] (15+15/67) Accurately ripped
    11 [5f06792c|2b3fb73c] (15+15/67) Accurately ripped
    12 [e8a451dc|04140bef] (15+15/67) Accurately ripped
    13 [0f4eaf32|d8ad2c01] (15+15/67) Accurately ripped
    14 [485da4e1|22326780] (15+15/67) Accurately ripped
    15 [07c27498|db65447b] (15+15/67) Accurately ripped
    16 [7f2a66d5|a0593800] (15+15/67) Accurately ripped
    17 [94f35071|c2b6d4af] (14+15/65) Accurately ripped
    18 [d682deeb|562d895d] (15+15/67) Accurately ripped
    19 [847c83a6|2cb1340a] (15+15/67) Accurately ripped
    20 [dfef185b|de79292b] (15+15/66) Accurately ripped
    21 [10a7d656|e9af8bdd] (15+15/67) Accurately ripped
    22 [6fe48525|f30b58a4] (15+15/67) Accurately ripped
    23 [3cd17e10|ffaea86c] (14+15/66) Accurately ripped
    24 [d36601e0|77e7ed02] (15+15/67) Accurately ripped
    25 [5d1f3b5d|b53021ba] (15+15/67) Accurately ripped
    26 [feee6077|5af1951f] (15+15/67) Accurately ripped
    27 [a220bc47|d2fd9c1a] (15+15/67) Accurately ripped
    28 [25b8e0ed|7e1de07e] (15+14/66) Accurately ripped
    29 [feb93c98|3931156f] (15+14/65) Accurately ripped
    30 [61c8bdd9|3a3ce852] (15+15/66) Accurately ripped
    31 [c9ee0090|72a02c85] (15+15/67) Accurately ripped
    Offsetted by -1328:
    01 [a5cb832d] (11/66) Accurately ripped
    02 [4d9d98be] (11/67) Accurately ripped
    03 [5778c245] (11/67) Accurately ripped
    04 [26769f80] (11/66) Accurately ripped
    05 [30eec335] (11/67) Accurately ripped
    06 [d29b2df5] (11/67) Accurately ripped
    07 [b040c9ff] (11/67) Accurately ripped
    08 [38e8f95e] (11/67) Accurately ripped
    09 [98653e67] (11/67) Accurately ripped
    10 [8b70a82c] (11/67) Accurately ripped
    11 [6e95f132] (11/67) Accurately ripped
    12 [e2905291] (11/67) Accurately ripped
    13 [04584732] (11/67) Accurately ripped
    14 [d068762d] (11/67) Accurately ripped
    15 [e6c5bc0e] (11/67) Accurately ripped
    16 [e7f9d33f] (11/67) Accurately ripped
    17 [f11c99ae] (10/65) Accurately ripped
    18 [6b201194] (11/67) Accurately ripped
    19 [c71477ba] (11/67) Accurately ripped
    20 [3e0c5237] (10/66) Accurately ripped
    21 [b394b18d] (11/67) Accurately ripped
    22 [39c2d502] (11/67) Accurately ripped
    23 [2681d938] (11/66) Accurately ripped
    24 [85df426f] (11/67) Accurately ripped
    25 [aedd3951] (11/67) Accurately ripped
    26 [fd03ee25] (11/67) Accurately ripped
    27 [3ea68886] (11/67) Accurately ripped
    28 [ec924a30] (11/66) Accurately ripped
    29 [a2b9a5ad] (10/65) Accurately ripped
    30 [7434963d] (10/66) Accurately ripped
    31 [ee5815c7] (11/67) Accurately ripped
    Offsetted by -664:
    01 [110d084d] (04/66) Accurately ripped
    02 [024b69d0] (04/67) Accurately ripped
    03 [1c8c7d10] (04/67) Accurately ripped
    04 [08c67bb9] (04/66) Accurately ripped
    05 [4f2f842b] (04/67) Accurately ripped
    06 [a94fa311] (04/67) Accurately ripped
    07 [58442309] (04/67) Accurately ripped
    08 [7376578d] (04/67) Accurately ripped
    09 [740d039e] (04/67) Accurately ripped
    10 [7227f1de] (04/67) Accurately ripped
    11 [9077baa3] (04/67) Accurately ripped
    12 [1da5a5c1] (04/67) Accurately ripped
    13 [97312324] (04/67) Accurately ripped
    14 [a26e8ff4] (04/67) Accurately ripped
    15 [d5542af3] (04/67) Accurately ripped
    16 [ff3b2163] (04/67) Accurately ripped
    17 [2badd07d] (04/65) Accurately ripped
    18 [e6f38608] (04/67) Accurately ripped
    19 [5120d891] (04/67) Accurately ripped
    20 [77a6ac22] (04/66) Accurately ripped
    21 [8a32ebe2] (04/67) Accurately ripped
    22 [5d0b831d] (04/67) Accurately ripped
    23 [5c29408c] (04/66) Accurately ripped
    24 [a7697645] (04/67) Accurately ripped
    25 [7bcefa3d] (04/67) Accurately ripped
    26 [5fadc5e5] (04/67) Accurately ripped
    27 [4cf86b44] (04/67) Accurately ripped
    28 [8c5dae29] (04/66) Accurately ripped
    29 [f4619dba] (04/65) Accurately ripped
    30 [54c2ff2c] (04/66) Accurately ripped
    31 [d4f9afd4] (04/67) Accurately ripped
    Track Peak [ CRC32 ] [W/O NULL] [ LOG ]
    -- 99,1 [A59994AD] [36A451F4]
    01 69,6 [094C82C3] [01BE83E3] CRC32
    02 91,2 [497EDFAC] [2D57E9E3] CRC32
    03 26,8 [514E0BD7] [1A2AF9F3] CRC32
    04 37,0 [0CFBC4FB] [FEF79B7E] CRC32
    05 79,2 [9486DF3B] [44F02E9D] CRC32
    06 51,8 [B6157210] [86C75301] CRC32
    07 84,4 [68B683BA] [54A45069] CRC32
    08 63,4 [9E9DA0E0] [AA8BB24D] CRC32
    09 53,3 [C2578E8E] [45ED7DAC] CRC32
    10 73,1 [6C9C18B5] [590C4C01] CRC32
    11 72,3 [E9BE40DC] [8BDD2A95] CRC32
    12 83,7 [BC923A47] [7FDE41CA] CRC32
    13 84,6 [E96C95A0] [C3886BD5] CRC32
    14 28,7 [DDC2BCFE] [7C786094] CRC32
    15 94,4 [B5A5B042] [9033D50A] CRC32
    16 98,8 [83A50570] [DABC087B] CRC32
    17 94,5 [485BDFEF] [520C02BF] CRC32
    18 99,1 [A021E27F] [4060A4F8] CRC32
    19 9,2 [1F47B4EB] [BA63AFF8] CRC32
    20 29,1 [EE9C667D] [A03A2F45] CRC32
    21 53,7 [FEF4314C] [A7788622] CRC32
    22 47,6 [2D9D334E] [627AE2CE] CRC32
    23 87,7 [F390CB1F] [0C051AEF] CRC32
    24 34,9 [1AA91073] [A640C7E1] CRC32
    25 19,4 [F9F7EC8F] [A2B2224B] CRC32
    26 57,9 [639BFE9C] [EC2F8EBF] CRC32
    27 66,2 [351357CC] [1AA3241E] CRC32
    28 96,0 [E7654E37] [E6736308] CRC32
    29 6,9 [3B0D1EF2] [6CFE9A9F] CRC32
    30 96,4 [60DC3250] [C94D56AF] CRC32
    31 97,0 [CA7514C7] [76D1E3EC] CRC32

    CUE sheet

    TITLE "Modest Mussorgsky: Pictures at an Exhibition (piano & orchestral versions)"
    PERFORMER "Alfred Brendel • André Previn"
    REM GENRE Classical
    REM DISCID C80FCE1F
    REM COMMENT "ExactAudioCopy v1.0b3"
    CATALOG 0028944265026
    FILE "01 - Pictures at an Exhibition - Promenade.flac" WAVE
    TRACK 01 AUDIO
    TITLE "Pictures at an Exhibition: Promenade"
    PERFORMER "Alfred Brendel"
    REM DATE 1985
    PREGAP 00:00:33
    INDEX 01 00:00:00
    FILE "02 - Pictures at an Exhibition - I. Gnomus.flac" WAVE
    TRACK 02 AUDIO
    TITLE "Pictures at an Exhibition: I. Gnomus"
    PERFORMER "Alfred Brendel"
    REM DATE 1985
    INDEX 01 00:00:00
    TRACK 03 AUDIO
    TITLE "Pictures at an Exhibition: Promenade"
    PERFORMER "Alfred Brendel"
    REM DATE 1985
    INDEX 00 02:24:63
    FILE "03 - Pictures at an Exhibition - Promenade.flac" WAVE
    INDEX 01 00:00:00
    FILE "04 - Pictures at an Exhibition - II. Il vecchio castello.flac" WAVE
    TRACK 04 AUDIO
    TITLE "Pictures at an Exhibition: II. Il vecchio castello"
    PERFORMER "Alfred Brendel"
    REM DATE 1985
    INDEX 01 00:00:00
    TRACK 05 AUDIO
    TITLE "Pictures at an Exhibition: Promenade"
    PERFORMER "Alfred Brendel"
    REM DATE 1985
    INDEX 00 04:56:13
    FILE "05 - Pictures at an Exhibition - Promenade.flac" WAVE
    INDEX 01 00:00:00
    FILE "06 - Pictures at an Exhibition - III. Tuileries (dispute d'enfants apres jeux).flac" WAVE
    TRACK 06 AUDIO
    TITLE "Pictures at an Exhibition: III. Tuileries (dispute d'enfants après jeux)"
    PERFORMER "Alfred Brendel"
    REM DATE 1985
    INDEX 01 00:00:00
    FILE "07 - Pictures at an Exhibition - IV. Bydlo.flac" WAVE
    TRACK 07 AUDIO
    TITLE "Pictures at an Exhibition: IV. Bydlo"
    PERFORMER "Alfred Brendel"
    REM DATE 1985
    INDEX 01 00:00:00
    FILE "08 - Pictures at an Exhibition - Promenade.flac" WAVE
    TRACK 08 AUDIO
    TITLE "Pictures at an Exhibition: Promenade"
    PERFORMER "Alfred Brendel"
    REM DATE 1985
    INDEX 01 00:00:00
    FILE "09 - Pictures at an Exhibition - V. Ballet of the Unhatched Chicks.flac" WAVE
    TRACK 09 AUDIO
    TITLE "Pictures at an Exhibition: V. Ballet of the Unhatched Chicks"
    PERFORMER "Alfred Brendel"
    REM DATE 1985
    INDEX 01 00:00:00
    FILE "10 - Pictures at an Exhibition - VI. Samuel Goldenberg und Schmuyle.flac" WAVE
    TRACK 10 AUDIO
    TITLE "Pictures at an Exhibition: VI. «Samuel» Goldenberg und «Schmuÿle»"
    PERFORMER "Alfred Brendel"
    REM DATE 1985
    INDEX 01 00:00:00
    FILE "11 - Pictures at an Exhibition - Promenade.flac" WAVE
    TRACK 11 AUDIO
    TITLE "Pictures at an Exhibition: Promenade"
    PERFORMER "Alfred Brendel"
    REM DATE 1985
    INDEX 01 00:00:00
    FILE "12 - Pictures at an Exhibition - VII. Limoges, le marche (La grande nouvelle).flac" WAVE
    TRACK 12 AUDIO
    TITLE "Pictures at an Exhibition: VII. Limoges, le marché (La grande nouvelle)"
    PERFORMER "Alfred Brendel"
    REM DATE 1985
    INDEX 01 00:00:00
    FILE "13 - Pictures at an Exhibition - VIII. Catacombae. Sepulcrum romanum.flac" WAVE
    TRACK 13 AUDIO
    TITLE "Pictures at an Exhibition: VIII. Catacombæ. Sepulcrum romanum"
    PERFORMER "Alfred Brendel"
    REM DATE 1985
    INDEX 01 00:00:00
    FILE "14 - Pictures at an Exhibition - Cum mortuis in lingua mortua.flac" WAVE
    TRACK 14 AUDIO
    TITLE "Pictures at an Exhibition: Cum mortuis in lingua mortua"
    PERFORMER "Alfred Brendel"
    REM DATE 1985
    INDEX 01 00:00:00
    FILE "15 - Pictures at an Exhibition - IX. The Hut on Fowl's Legs (Baba-Yaga).flac" WAVE
    TRACK 15 AUDIO
    TITLE "Pictures at an Exhibition: IX. The Hut on Fowl's Legs (Baba-Yaga)"
    PERFORMER "Alfred Brendel"
    REM DATE 1985
    INDEX 01 00:00:00
    FILE "16 - Pictures at an Exhibition - X. The Bogatyr Gates (in the Capital in Kiev).flac" WAVE
    TRACK 16 AUDIO
    TITLE "Pictures at an Exhibition: X. The Bogatyr Gates (in the Capital in Kiev)"
    PERFORMER "Alfred Brendel"
    REM DATE 1985
    INDEX 01 00:00:00
    TRACK 17 AUDIO
    TITLE "Pictures at an Exhibition (orch. by Ravel): Promenade"
    PERFORMER "Wiener Philharmoniker. André Previn, conductor"
    REM DATE 1985
    INDEX 00 05:01:50
    FILE "17 - Pictures at an Exhibition (orch. by Ravel) - Promenade.flac" WAVE
    INDEX 01 00:00:00
    FILE "18 - Pictures at an Exhibition (orch. by Ravel) - I. Gnomus.flac" WAVE
    TRACK 18 AUDIO
    TITLE "Pictures at an Exhibition (orch. by Ravel): I. Gnomus"
    PERFORMER "Wiener Philharmoniker. André Previn, conductor"
    REM DATE 1985
    INDEX 01 00:00:00
    FILE "19 - Pictures at an Exhibition (orch. by Ravel) - Promenade.flac" WAVE
    TRACK 19 AUDIO
    TITLE "Pictures at an Exhibition (orch. by Ravel): Promenade"
    PERFORMER "Wiener Philharmoniker. André Previn, conductor"
    REM DATE 1985
    INDEX 01 00:00:00
    FILE "20 - Pictures at an Exhibition (orch. by Ravel) - II. Il vecchio castello.flac" WAVE
    TRACK 20 AUDIO
    TITLE "Pictures at an Exhibition (orch. by Ravel): II. Il vecchio castello"
    PERFORMER "Wiener Philharmoniker. André Previn, conductor"
    REM DATE 1985
    INDEX 01 00:00:00
    FILE "21 - Pictures at an Exhibition (orch. by Ravel) - Promenade.flac" WAVE
    TRACK 21 AUDIO
    TITLE "Pictures at an Exhibition (orch. by Ravel): Promenade"
    PERFORMER "Wiener Philharmoniker. André Previn, conductor"
    REM DATE 1985
    INDEX 01 00:00:00
    FILE "22 - Pictures at an Exhibition (orch. by Ravel) - III. Tuileries (dispute d'enfants apres jeux).flac" WAVE
    TRACK 22 AUDIO
    TITLE "Pictures at an Exhibition (orch. by Ravel): III. Tuileries (dispute d'enfants après jeux)"
    PERFORMER "Wiener Philharmoniker. André Previn, conductor"
    REM DATE 1985
    INDEX 01 00:00:00
    FILE "23 - Pictures at an Exhibition (orch. by Ravel) - IV. Bydlo.flac" WAVE
    TRACK 23 AUDIO
    TITLE "Pictures at an Exhibition (orch. by Ravel): IV. Bydlo"
    PERFORMER "Wiener Philharmoniker. André Previn, conductor"
    REM DATE 1985
    INDEX 01 00:00:00
    FILE "24 - Pictures at an Exhibition (orch. by Ravel) - Promenade.flac" WAVE
    TRACK 24 AUDIO
    TITLE "Pictures at an Exhibition (orch. by Ravel): Promenade"
    PERFORMER "Wiener Philharmoniker. André Previn, conductor"
    REM DATE 1985
    INDEX 01 00:00:00
    FILE "25 - Pictures at an Exhibition (orch. by Ravel) - V. Ballet of the Unhatched Chicks.flac" WAVE
    TRACK 25 AUDIO
    TITLE "Pictures at an Exhibition (orch. by Ravel): V. Ballet of the Unhatched Chicks"
    PERFORMER "Wiener Philharmoniker. André Previn, conductor"
    REM DATE 1985
    INDEX 01 00:00:00
    FILE "26 - Pictures at an Exhibition (orch. by Ravel) - VI. Samuel Goldenberg und Schmuyle. - Promenade.flac" WAVE
    TRACK 26 AUDIO
    TITLE "Pictures at an Exhibition (orch. by Ravel): VI. «Samuel» Goldenberg und «Schmuÿle». — Promenade"
    PERFORMER "Wiener Philharmoniker. André Previn, conductor"
    REM DATE 1985
    INDEX 01 00:00:00
    TRACK 27 AUDIO
    TITLE "Pictures at an Exhibition (orch. by Ravel): VII. Limoges, le marché (La grande nouvelle)"
    PERFORMER "Wiener Philharmoniker. André Previn, conductor"
    REM DATE 1985
    INDEX 00 02:23:00
    FILE "27 - Pictures at an Exhibition (orch. by Ravel) - VII. Limoges, le marche (La grande nouvelle).flac" WAVE
    INDEX 01 00:00:00
    FILE "28 - Pictures at an Exhibition (orch. by Ravel) - VIII. Catacombae. Sepulcrum romanum.flac" WAVE
    TRACK 28 AUDIO
    TITLE "Pictures at an Exhibition (orch. by Ravel): VIII. Catacombæ. Sepulcrum romanum"
    PERFORMER "Wiener Philharmoniker. André Previn, conductor"
    REM DATE 1985
    INDEX 01 00:00:00
    FILE "29 - Pictures at an Exhibition (orch. by Ravel) - Cum mortuis in lingua mortua.flac" WAVE
    TRACK 29 AUDIO
    TITLE "Pictures at an Exhibition (orch. by Ravel): Cum mortuis in lingua mortua"
    PERFORMER "Wiener Philharmoniker. André Previn, conductor"
    REM DATE 1985
    INDEX 01 00:00:00
    FILE "30 - Pictures at an Exhibition (orch. by Ravel) - IX. The Hut on Fowl's Legs (Baba-Yaga).flac" WAVE
    TRACK 30 AUDIO
    TITLE "Pictures at an Exhibition (orch. by Ravel): IX. The Hut on Fowl's Legs (Baba-Yaga)"
    PERFORMER "Wiener Philharmoniker. André Previn, conductor"
    REM DATE 1985
    INDEX 01 00:00:00
    FILE "31 - Pictures at an Exhibition (orch. by Ravel) - X. The Bogatyr Gates (in the Capital in Kiev).flac" WAVE
    TRACK 31 AUDIO
    TITLE "Pictures at an Exhibition (orch. by Ravel): X. The Bogatyr Gates (in the Capital in Kiev)"
    PERFORMER "Wiener Philharmoniker. André Previn, conductor"
    REM DATE 1985
    INDEX 01 00:00:00
    -
    Модест Петрович Мусоргский — каталог раздач на rutracker.orgВсе мои раздачи / All my releases



  • Показать сообщения:    

    Текущее время: 02-Дек 21:13

    Часовой пояс: UTC + 3


    Вы не можете начинать темы
    Вы не можете отвечать на сообщения
    Вы не можете редактировать свои сообщения
    Вы не можете удалять свои сообщения
    Вы не можете голосовать в опросах
    Вы не можете прикреплять файлы к сообщениям
    Вы не можете скачивать файлы