Короли эпизода (1-9 фильмы) (Филипп Сурков) [2015, Документальный, биография, кинематограф, познавательный, SATRip]


Статистика раздачи [Обновить пиров]
Размер:  4.24 GB   |    Зарегистрирован:  10 месяцев   |    Скачан:  1 раз

Полного источника не было: 8 месяцев 20 дней

 
   
 
 
 

[Цитировать]

Короли эпизода (1-9 фильмы)
Дата/Год выпуска: 2015
Страна: Россия, ООО «Студия 8»
Жанр: Документальный, биография, кинематограф, познавательный
Продолжительность: 9 х ~ 00:40:00
Перевод: Не требуется
Русские субтитры: нет
Режиссер: Филипп Сурков
Описание: Каждый фильм цикла – это импровизированный худсовет, на котором отсматриваются эпизоды фильмов с участием любимых артистов. А потом собравшиеся гости, среди которых – Карен Шахназаров, Станислав Говорухин, Светлана Дружинина и другие известные в мире кино люди – будут вспоминать героев каждой серии, рассказывать об их судьбе и выбирать один эпизод, который по их мнению является абсолютным шедевром.
качество: SATRip
формат: AVI
Видео: 704x400 (1.76:1), 704х448, 25 fps, XviD build 50 ~1600 kbps avg, 0.21 bit/pixel
Аудио: 48 kHz, MPEG Layer 3, 2 ch, ~128.00 kbps avg

Содержание фильмов

Первое заседание худсовета – Фаина Раневская
По меткому выражению Фаины Раневской – "плохо сыгранная роль – это плевок в вечность". Почему же она на всю жизнь так и осталась одинокой? Как звали очаровательного юношу, в компании которого актриса иногда отмечала Новый год? Какие из афоризмов, которые она не произносила, были приписаны Фаине Георгиевне? Что вынес из общения с ней Анатолий Адоскин?
Второе заседание худсовета – Борис Новиков
Его называли самым народным артистом СССР, на счету которого более 150 ролей в кино. Но при этом – ни одной главной. Ему одинаково удавались и комические, и трагические роли. Что же омрачало жизнь артиста?
Третье заседание худсовета – Сергей Филиппов
Из фильма, посвящённого Сергею Филиппову, зрители узнают, что же так тяготило актёра. А также, какая болезнь поставила крест на его карьере?
Четвертое заседание худсовета – Рина Зелёная
В программе, посвящённой большой актрисе маленьких ролей Рине Зелёной, худсовет обсудил её участие в "Подкидыше", "Весне", "Телеграмме", "Приключениях Буратино", а также последнюю роль, которую актриса исполняла в кино на протяжении семи лет, – миссис Хадсон в телевизионном сериале о приключениях Шерлока Холмса и доктора Ватсона.
Пятое заседание худсовета – Эраст Гарин
Эраста Гарина называли комиком с серьёзным лицом, Бастером Китоном советского кинематографа. Как-то Мейерхольд сказал Маяковскому: "Актёр моего театра, дъявольски талантлив, комик, острый, злой, далеко пойдёт!" Его эпизодические роли до сих пор помнят телезрители. Об этом и не только смотрите в очередном фильме из цикла "Короли эпизода".
Шестое заседание худсовета – Борислав Брондуков
Под конец жизни Борислав Брондуков был прикован к постели. Три инсульта лишили артиста профессии. Зрители всегда смеялись, когда видели на экране его чудаковатых героев. Но на самом деле он играл трагедии маленьких людей, брошенных на дно общества. Играл так, что порой его реплики запоминали чаще, чем монологи главных героев...
Седьмое заседание худсовета – Валентина Сперантова
Одной из самых ярких актрис уходящего амплуа травести посвящается…«Век травести до обидного короток. А переход на иные, так называемые «возрастные» роли – что ж, хорошо, если он состоится. А если нет? Да и, честно говоря, так ли уж много случаев каждый из нас припомнит, когда блистательная травести становилась столь же блистательной старухой?... Так вот, Валентине Александровне Сперантовой колоссально повезло: благодаря радио, она смогла работать в амплуа травести, данном ей свыше, целые сорок лет», – вспоминал замечательный актер и режиссер радиопостановок Николай Литвинов, имевший счастье работать с актрисой все эти годы («Какое наслаждение было работать с нею!»). Радио позволило сыграть Валентине Сперантовой те роли, которые она уже по объективным причинам не могла играть в театре. А ведь почти до конца жизни голос ее оставался молодым. Актриса большого внутреннего дыхания, беспокойная внутри, озорница до седых волос, всегда настроенная на волну детства. Она никогда не говорила о своих тяготах и бедах. «Что бы и кого она не играла – ребенка ли, старуху ли, драматическую или комедийную роль – душевные запасы на все были наготове. Казалось, дотронешься до ее души, и сразу что-то откликнется живой, правдивой неожиданностью».
Восьмое заседание худсовета – Зиновий Гердт
Ему удавалось всё – в театре, в кино, на радио, на литературном поприще и в личной жизни. Не доволен Зиновием Гердтом, как правило, бывал только один человек – сам Гердт. Не успевали стихнуть аплодисменты благодарной публики, как актёр уже начинал потихоньку ворчать на себя в домашнем кругу и всё больше и больше хотел новой работы.
Девятое заседание худсовета – Юрий Белов
Белов родился во Ржеве, а детство провёл на Курилах, по последнему месту службы отца. Офицерское окружение приучило его к дисциплине. Сослуживцы отца были людьми жадными до жизни, это передалось и Юре. С детства его интересовало всё. Он хотел быть и подводником, и геологом, и космонавтом, но стал артистом...

MediaInfo

Complete name                            : D:\Короли эпизода.(1-6 фильмы).2015.SATRip\Короли эпизода.(5 фильм).Эраст Гарин.2015.SATRip.avi
Format : AVI
Format/Info : Audio Video Interleave
File size : 458 MiB
Duration : 39mn 5s
Overall bit rate : 1 638 Kbps
Writing application : VirtualDubMod 1.5.10.3 | www.virtualdub-fr.org || (build 2550/release)
Writing library : VirtualDubMod build 2550/release
Video
ID : 0
Format : MPEG-4 Visual
Format profile : Advanced Simple@L5
Format settings, BVOP : 2
Format settings, QPel : No
Format settings, GMC : No warppoints
Format settings, Matrix : Default (MPEG)
Codec ID : XVID
Codec ID/Hint : XviD
Duration : 39mn 5s
Bit rate : 1 500 Kbps
Width : 704 pixels
Height : 400 pixels
Display aspect ratio : 16:9
Frame rate : 25.000 fps
Color space : YUV
Chroma subsampling : 4:2:0
Bit depth : 8 bits
Scan type : Progressive
Compression mode : Lossy
Bits/(Pixel*Frame) : 0.213
Stream size : 419 MiB (92%)
Writing library : XviD 1.2.1 (UTC 2008-12-04)
Audio
ID : 1
Format : MPEG Audio
Format version : Version 1
Format profile : Layer 3
Codec ID : 55
Codec ID/Hint : MP3
Duration : 39mn 5s
Bit rate mode : Constant
Bit rate : 128 Kbps
Channel count : 2 channels
Sampling rate : 48.0 KHz
Compression mode : Lossy
Stream size : 35.8 MiB (8%)
Alignment : Aligned on interleaves
Interleave, duration : 40 ms (1.00 video frame)
Interleave, preload duration : 504 ms
Writing library : LAME3.99r
Encoding settings : -m s -V 4 -q 2 -lowpass 17 -b 128

Скриншоты

[teatrix.ru].t21098.torrent 
Торрент: Зарегистрирован [ 2016-03-20 00:53 ] · 8763869182E59A0C7502531D1B3B5C1CC91D7A1E

Скачать .torrent

Скачать

86 KB

Статус: проверено
Скачан: 1 раз
Размер: 4.24 GB
terms.php



Показать сообщения:    

Текущее время: 20-Янв 16:58

Часовой пояс: UTC + 3


Вы не можете начинать темы
Вы не можете отвечать на сообщения
Вы не можете редактировать свои сообщения
Вы не можете удалять свои сообщения
Вы не можете голосовать в опросах
Вы не можете прикреплять файлы к сообщениям
Вы можете скачивать файлы