(Opera, Vocal) Ruth Ann Swenson - Endless Pleasure (Soprano Operatic Arias by Handel and Mozart) - 1998, FLAC (tracks+.cue), lossless


 

[Цитировать]

Ruth Ann Swenson - Endless Pleasure (Soprano Operatic Arias by Handel and Mozart)
Жанр: Opera, Vocal
Страна-производитель диска: CША
Год издания диска: 1998
Издатель (лейбл): EMI Classics
Дата записи: 1998
Аудиокодек: FLAC
Тип рипа: tracks+.cue
Битрейт аудио: lossless
Продолжительность: 67:57
Источник: релизер (Guillermo)
Треклист:
George Frederick Handel
Semele, oratorio, HWV 58:
1. Endless pleasure [03:27];
2. Myself I shall adore [07:01];
3. O sleep, why dost thou leave me? [03:33];
Giulio Cesare in Egitto, opera, HWV 17:
4. V'adoro, pupille, saette d'amore [04:55];
5. Se peità di me non senti [09:10];
6. Da tempeste il legno infranto [06:35];
Wolfgang Amadeus Mozart
Die Entführung aus dem Serail (The Abduction from the Seraglio), opera, K. 384:
7. Recit: Welcher Weschel herrscht [01:59];
8. Aria: Traurigkeit [07:03];
9. Martern aller Arten [09:43];
Misera, dove son...Ah! non son io, recitative and aria for soprano & orchestra, K. 369:
10. Recit: Miersa, dove son! [02:59];
11. Aria: Ah! non son io che parló [03:56];
Lucio Silla, opera, K. 135:
12. Recit: in un istante oh come s'accrebbe il mio timor! [02:47];
13. Aria: Parto, m'affretto [04:44].
Исполнители:
Ruth Ann Swenson, soprano,
Charles Mackerras, Conductor,
Orchestra of the Age of Enlightenment.
Recorded at Abbey Road Studio No.1, London, England, February 13, 1998 - February 20, 1998.

Лог создания рипа

Exact Audio Copy V1.0 beta 3 from 29. August 2011
EAC extraction logfile from 30. April 2015, 12:57
Ruth Ann Swenson / Endless Pleasure
Used drive : HL-DT-STDVDRAM GH24NSC0 Adapter: 3 ID: 0
Read mode : Secure
Utilize accurate stream : Yes
Defeat audio cache : Yes
Make use of C2 pointers : No
Read offset correction : 6
Overread into Lead-In and Lead-Out : No
Fill up missing offset samples with silence : Yes
Delete leading and trailing silent blocks : No
Null samples used in CRC calculations : Yes
Used interface : Native Win32 interface for Win NT & 2000
Used output format : User Defined Encoder
Selected bitrate : 768 kBit/s
Quality : High
Add ID3 tag : No
Command line compressor : C:\Program Files (x86)\Exact Audio Copy\FLAC\FLAC.EXE
Additional command line options : -8 -V -T "ARTIST=%artist%" -T "TITLE=%title%" -T "ALBUM=%albumtitle%" -T "DATE=%year%" -T "TRACKNUMBER=%tracknr%" -T "GENRE=%genre%" -T "PERFORMER=%albuminterpret%" -T "COMPOSER=%composer%" %haslyrics%--tag-from-file=LYRICS="%lyricsfile%"%haslyrics% -T "ALBUMARTIST=%albumartist%" -T "DISCNUMBER=%cdnumber%" -T "TOTALDISCS=%totalcds%" -T "TOTALTRACKS=%numtracks%" -T "COMMENT=%comment%" %source% -o %dest%
TOC of the extracted CD
Track | Start | Length | Start sector | End sector
---------------------------------------------------------
1 | 0:00.00 | 3:27.05 | 0 | 15529
2 | 3:27.05 | 7:01.57 | 15530 | 47161
3 | 10:28.62 | 3:33.08 | 47162 | 63144
4 | 14:01.70 | 4:55.55 | 63145 | 85324
5 | 18:57.50 | 9:10.22 | 85325 | 126596
6 | 28:07.72 | 6:35.60 | 126597 | 156281
7 | 34:43.57 | 1:59.08 | 156282 | 165214
8 | 36:42.65 | 7:03.67 | 165215 | 197006
9 | 43:46.57 | 9:43.20 | 197007 | 240751
10 | 53:30.02 | 2:59.03 | 240752 | 254179
11 | 56:29.05 | 3:56.37 | 254180 | 271916
12 | 60:25.42 | 2:47.68 | 271917 | 284509
13 | 63:13.35 | 4:44.70 | 284510 | 305879
Track 1
Filename f:\Users\Guillermo\Desktop\EAC convertidos\01 Handel--Semele - Endless Pleasure.wav
Pre-gap length 0:00:02.00
Peak level 73.2 %
Extraction speed 1.5 X
Track quality 100.0 %
Test CRC 65FF3B5D
Copy CRC 65FF3B5D
Copy OK
Track 2
Filename f:\Users\Guillermo\Desktop\EAC convertidos\02 Handel--Semele - Myself I Shall Adore.wav
Pre-gap length 0:00:05.06
Peak level 54.6 %
Extraction speed 1.9 X
Track quality 100.0 %
Test CRC 9604A62F
Copy CRC 9604A62F
Copy OK
Track 3
Filename f:\Users\Guillermo\Desktop\EAC convertidos\03 Handel--Semele - O Sleep, Why dost thou leave Me.wav
Pre-gap length 0:00:03.02
Peak level 39.4 %
Extraction speed 1.9 X
Track quality 100.0 %
Test CRC 3FBC057E
Copy CRC 3FBC057E
Copy OK
Track 4
Filename f:\Users\Guillermo\Desktop\EAC convertidos\04 Handel--Giulio Cesare - V'adoro, pupille, saette d'amore.wav
Pre-gap length 0:00:05.46
Peak level 72.6 %
Extraction speed 1.9 X
Track quality 99.9 %
Test CRC AFC1D2BD
Copy CRC AFC1D2BD
Copy OK
Track 5
Filename f:\Users\Guillermo\Desktop\EAC convertidos\05 Handel--Giulio Cesare - Se pietà di me non senti.wav
Pre-gap length 0:00:05.24
Peak level 59.1 %
Extraction speed 2.6 X
Track quality 100.0 %
Test CRC 4D088663
Copy CRC 4D088663
Copy OK
Track 6
Filename f:\Users\Guillermo\Desktop\EAC convertidos\06 Handel--Giulio Cesare - Da tempste il legno infranto.wav
Pre-gap length 0:00:03.06
Peak level 57.5 %
Extraction speed 2.7 X
Track quality 100.0 %
Test CRC 57883DB8
Copy CRC 57883DB8
Copy OK
Track 7
Filename f:\Users\Guillermo\Desktop\EAC convertidos\07 Mozart--Die Entführung aus dem Serail - Welcher Wechsel herrscht in meiner Seele.wav
Pre-gap length 0:00:07.56
Peak level 35.2 %
Extraction speed 2.2 X
Track quality 100.0 %
Test CRC B30E8D7A
Copy CRC B30E8D7A
Copy OK
Track 8
Filename f:\Users\Guillermo\Desktop\EAC convertidos\08 Mozart--Die Entführung aus dem Serail - Traurigkeit.wav
Peak level 68.6 %
Extraction speed 3.0 X
Track quality 100.0 %
Test CRC 5FB17A41
Copy CRC 5FB17A41
Copy OK
Track 9
Filename f:\Users\Guillermo\Desktop\EAC convertidos\09 Mozart--Die Entführung aus dem Serail - Martern aller Arten.wav
Pre-gap length 0:00:04.02
Peak level 91.3 %
Extraction speed 3.3 X
Track quality 100.0 %
Test CRC DE72332A
Copy CRC DE72332A
Copy OK
Track 10
Filename f:\Users\Guillermo\Desktop\EAC convertidos\10 Mozart--Misera Dove Son, K.369 - Misera, Dove Son!.wav
Pre-gap length 0:00:05.89
Peak level 45.3 %
Extraction speed 2.8 X
Track quality 100.0 %
Test CRC 70ABC267
Copy CRC 70ABC267
Copy OK
Track 11
Filename f:\Users\Guillermo\Desktop\EAC convertidos\11 Mozart--Misera Dove Son, K.369 - Ah! non son io che parló.wav
Peak level 58.9 %
Extraction speed 3.1 X
Track quality 100.0 %
Test CRC 37A94ABD
Copy CRC 37A94ABD
Copy OK
Track 12
Filename f:\Users\Guillermo\Desktop\EAC convertidos\12 Mozart--Lucio Silla - In un instante oh come s'accrebbe il mio timor!.wav
Pre-gap length 0:00:07.20
Peak level 42.2 %
Extraction speed 2.4 X
Track quality 99.8 %
Test CRC 1953FC71
Copy CRC 1953FC71
Copy OK
Track 13
Filename f:\Users\Guillermo\Desktop\EAC convertidos\13 Mozart--Lucio Silla - Parto, m'affretto.wav
Peak level 62.7 %
Extraction speed 3.3 X
Track quality 100.0 %
Test CRC 2CB893D4
Copy CRC 2CB893D4
Copy OK
No errors occurred
End of status report
==== Log checksum 244C37BE5C94599ECEB9428D1B19F3978A473CB1163B3AAD1AD529039115E84E ====

Содержание индексной карты (.CUE)

REM GENRE Opera
REM DATE 1998
REM DISCID B60FEE0D
REM COMMENT "ExactAudioCopy v1.0b3"
FILE "01 Handel--Semele - Endless Pleasure.wav" WAVE
TRACK 01 AUDIO
INDEX 01 00:00:00
TRACK 02 AUDIO
INDEX 00 03:22:00
FILE "02 Handel--Semele - Myself I Shall Adore.wav" WAVE
INDEX 01 00:00:00
TRACK 03 AUDIO
INDEX 00 06:58:55
FILE "03 Handel--Semele - O Sleep, Why dost thou leave Me.wav" WAVE
INDEX 01 00:00:00
TRACK 04 AUDIO
INDEX 00 03:27:48
FILE "04 Handel--Giulio Cesare - V'adoro, pupille, saette d'amore.wav" WAVE
INDEX 01 00:00:00
TRACK 05 AUDIO
INDEX 00 04:50:37
FILE "05 Handel--Giulio Cesare - Se pietа di me non senti.wav" WAVE
INDEX 01 00:00:00
TRACK 06 AUDIO
INDEX 00 09:07:17
FILE "06 Handel--Giulio Cesare - Da tempste il legno infranto.wav" WAVE
INDEX 01 00:00:00
TRACK 07 AUDIO
INDEX 00 06:28:18
FILE "07 Mozart--Die Entfьhrung aus dem Serail - Welcher Wechsel herrscht in meiner Seele.wav" WAVE
INDEX 01 00:00:00
FILE "08 Mozart--Die Entfьhrung aus dem Serail - Traurigkeit.wav" WAVE
TRACK 08 AUDIO
INDEX 01 00:00:00
TRACK 09 AUDIO
INDEX 00 06:59:65
FILE "09 Mozart--Die Entfьhrung aus dem Serail - Martern aller Arten.wav" WAVE
INDEX 01 00:00:00
TRACK 10 AUDIO
INDEX 00 09:37:28
FILE "10 Mozart--Misera Dove Son, K.369 - Misera, Dove Son!.wav" WAVE
INDEX 01 00:00:00
FILE "11 Mozart--Misera Dove Son, K.369 - Ah! non son io che parlу.wav" WAVE
TRACK 11 AUDIO
INDEX 01 00:00:00
TRACK 12 AUDIO
INDEX 00 03:49:22
FILE "12 Mozart--Lucio Silla - In un instante oh come s'accrebbe il mio timor!.wav" WAVE
INDEX 01 00:00:00
FILE "13 Mozart--Lucio Silla - Parto, m'affretto.wav" WAVE
TRACK 13 AUDIO
INDEX 01 00:00:00



Показать сообщения:    

Текущее время: 11-Дек 03:19

Часовой пояс: UTC + 3


Вы не можете начинать темы
Вы не можете отвечать на сообщения
Вы не можете редактировать свои сообщения
Вы не можете удалять свои сообщения
Вы не можете голосовать в опросах
Вы не можете прикреплять файлы к сообщениям
Вы не можете скачивать файлы