(Opera) Charles Gounod - Romeo et Juliette / Шарль Гуно - Ромео и Джульетта (Alberto Erede; Janine Micheau, Raoul Jobin, Heinz Rehfuss, Louis Rialland, Pierre Mollet), 1953 - studio recording / 1995, FLAC (tracks+.cue), lossless


 

[Цитировать]

Charles Gounod - Roméo et Juliette / Шарль Гуно - Ромео и Джульетта (Alberto Erede; Janine Micheau, Raoul Jobin, Heinz Rehfuss, Louis Rialland, Pierre Mollet)
Жанр: Opera
Страна-производитель диска: Aнглия
Год издания диска: 1995
Издатель (лейбл): DECCA
Дата записи: 1953
Аудиокодек: FLAC
Тип рипа: tracks+.cue
Битрейт аудио: lossless
Продолжительность: 142:40
Источник: релизер (Guillermo)
Исполнители:
Juliette - Janine Micheau,
Duc - André Philippe,
Frère Laurent - Heinz Rehfuss,
Gertrude - Odette Riquier,
Grégorio - André Philippe,
Le Comte Capulet - Charles Cambon,
Le Comte Pâris - Camille Roquetty,
Mercutio - Pierre Mollet,
Roméo - Raoul Jobin,
Stéphane - Claudine Collart,
Tybalt - Louis Rialland.
Alberto Erede, Conductor,
Orchestre et Chœurs de l'Opéra Paris.

Лог создания рипаЛог создания рипа CD 1

Exact Audio Copy V1.0 beta 3 from 29. August 2011
EAC extraction logfile from 29. April 2015, 18:13
Gounod / Roméo et Juliette
Used drive : HL-DT-STDVDRAM GH24NSC0 Adapter: 3 ID: 0
Read mode : Secure
Utilize accurate stream : Yes
Defeat audio cache : Yes
Make use of C2 pointers : No
Read offset correction : 6
Overread into Lead-In and Lead-Out : No
Fill up missing offset samples with silence : Yes
Delete leading and trailing silent blocks : No
Null samples used in CRC calculations : Yes
Used interface : Native Win32 interface for Win NT & 2000
Used output format : User Defined Encoder
Selected bitrate : 768 kBit/s
Quality : High
Add ID3 tag : No
Command line compressor : C:\Program Files (x86)\Exact Audio Copy\FLAC\FLAC.EXE
Additional command line options : -8 -V -T "ARTIST=%artist%" -T "TITLE=%title%" -T "ALBUM=%albumtitle%" -T "DATE=%year%" -T "TRACKNUMBER=%tracknr%" -T "GENRE=%genre%" -T "PERFORMER=%albuminterpret%" -T "COMPOSER=%composer%" %haslyrics%--tag-from-file=LYRICS="%lyricsfile%"%haslyrics% -T "ALBUMARTIST=%albumartist%" -T "DISCNUMBER=%cdnumber%" -T "TOTALDISCS=%totalcds%" -T "TOTALTRACKS=%numtracks%" -T "COMMENT=%comment%" %source% -o %dest%
TOC of the extracted CD
Track | Start | Length | Start sector | End sector
---------------------------------------------------------
1 | 0:00.32 | 7:13.55 | 32 | 32561
2 | 7:14.12 | 7:46.45 | 32562 | 67556
3 | 15:00.57 | 3:10.43 | 67557 | 81849
4 | 18:11.25 | 1:12.07 | 81850 | 87256
5 | 19:23.32 | 2:29.70 | 87257 | 98501
6 | 21:53.27 | 2:21.63 | 98502 | 109139
7 | 24:15.15 | 4:40.25 | 109140 | 130164
8 | 28:55.40 | 4:47.37 | 130165 | 151726
9 | 33:43.02 | 5:19.08 | 151727 | 175659
10 | 39:02.10 | 3:44.70 | 175660 | 192529
11 | 42:47.05 | 3:55.27 | 192530 | 210181
12 | 46:42.32 | 8:15.35 | 210182 | 247341
13 | 54:57.67 | 8:01.53 | 247342 | 283469
14 | 62:59.45 | 6:10.55 | 283470 | 311274
15 | 69:10.25 | 6:30.07 | 311275 | 340531
Track 1
Filename f:\Users\Guillermo\Desktop\EAC convertidos\01 Ouverture - prologue.wav
Pre-gap length 0:00:02.42
Peak level 97.7 %
Extraction speed 1.7 X
Track quality 99.9 %
Test CRC D36A1F7E
Copy CRC D36A1F7E
Copy OK
Track 2
Filename f:\Users\Guillermo\Desktop\EAC convertidos\02 L'heure s'envole.wav
Pre-gap length 0:00:02.00
Peak level 85.8 %
Extraction speed 2.2 X
Track quality 100.0 %
Test CRC 9FE5FFAC
Copy CRC 9FE5FFAC
Copy OK
Track 3
Filename f:\Users\Guillermo\Desktop\EAC convertidos\03 Allons! jeunes gens.wav
Pre-gap length 0:00:02.00
Peak level 75.4 %
Extraction speed 1.7 X
Track quality 99.8 %
Test CRC 21B9ADBD
Copy CRC 21B9ADBD
Copy OK
Track 4
Filename f:\Users\Guillermo\Desktop\EAC convertidos\04 Enfin la place est libre.wav
Pre-gap length 0:00:02.00
Peak level 65.9 %
Extraction speed 1.5 X
Track quality 100.0 %
Test CRC 969C74E9
Copy CRC 969C74E9
Copy OK
Track 5
Filename f:\Users\Guillermo\Desktop\EAC convertidos\05 Mab, la reine des mensonges.wav
Pre-gap length 0:00:02.00
Peak level 55.2 %
Extraction speed 2.1 X
Track quality 100.0 %
Test CRC 63F78777
Copy CRC 63F78777
Copy OK
Track 6
Filename f:\Users\Guillermo\Desktop\EAC convertidos\06 Eh bien.wav
Pre-gap length 0:00:02.00
Peak level 61.4 %
Extraction speed 2.1 X
Track quality 100.0 %
Test CRC 246F73AE
Copy CRC 246F73AE
Copy OK
Track 7
Filename f:\Users\Guillermo\Desktop\EAC convertidos\07 Voyons nourrice.wav
Pre-gap length 0:00:02.00
Peak level 61.9 %
Extraction speed 2.6 X
Track quality 100.0 %
Test CRC 793B6BA1
Copy CRC 793B6BA1
Copy OK
Track 8
Filename f:\Users\Guillermo\Desktop\EAC convertidos\08 Le nom de cette belle enfant.wav
Pre-gap length 0:00:02.00
Peak level 57.1 %
Extraction speed 2.7 X
Track quality 100.0 %
Test CRC 3191ECD0
Copy CRC 3191ECD0
Copy OK
Track 9
Filename f:\Users\Guillermo\Desktop\EAC convertidos\09 Quelqu'un!.wav
Pre-gap length 0:00:02.00
Peak level 89.3 %
Extraction speed 2.9 X
Track quality 100.0 %
Test CRC 6C0D084B
Copy CRC 6C0D084B
Copy OK
Track 10
Filename f:\Users\Guillermo\Desktop\EAC convertidos\10 Acte 2- entr'acte.wav
Pre-gap length 0:00:02.00
Peak level 49.0 %
Extraction speed 2.8 X
Track quality 100.0 %
Test CRC A06B169B
Copy CRC A06B169B
Copy OK
Track 11
Filename f:\Users\Guillermo\Desktop\EAC convertidos\11 L'amour, l'amour.wav
Pre-gap length 0:00:02.00
Peak level 63.1 %
Extraction speed 2.9 X
Track quality 100.0 %
Test CRC 718BBBA4
Copy CRC 718BBBA4
Copy OK
Track 12
Filename f:\Users\Guillermo\Desktop\EAC convertidos\12 Hélas...wav
Pre-gap length 0:00:02.00
Peak level 79.7 %
Extraction speed 3.4 X
Track quality 100.0 %
Test CRC 63A71B96
Copy CRC 63A71B96
Copy OK
Track 13
Filename f:\Users\Guillermo\Desktop\EAC convertidos\13 O nuit divine.wav
Pre-gap length 0:00:02.00
Peak level 67.1 %
Extraction speed 3.6 X
Track quality 100.0 %
Test CRC 066A9DFB
Copy CRC 066A9DFB
Copy OK
Track 14
Filename f:\Users\Guillermo\Desktop\EAC convertidos\14 Acte 3, scéne 1 Entr'acte.wav
Pre-gap length 0:00:02.00
Peak level 53.1 %
Extraction speed 3.6 X
Track quality 100.0 %
Test CRC 85D61E4E
Copy CRC 85D61E4E
Copy OK
Track 15
Filename f:\Users\Guillermo\Desktop\EAC convertidos\15 Dieu qui fis l'homme à ton image.wav
Pre-gap length 0:00:02.00
Peak level 75.3 %
Extraction speed 3.8 X
Track quality 100.0 %
Test CRC 4B60E6AA
Copy CRC 4B60E6AA
Copy OK
No errors occurred
End of status report
==== Log checksum F3798AF69CC78A785D4AEB5BEA66D805DB85AFB2ECC250207C5222F43F08D60B ====

Лог создания рипа CD 2

Exact Audio Copy V1.0 beta 3 from 29. August 2011
EAC extraction logfile from 29. April 2015, 19:17
Artista desconocido / Título desconocido
Used drive : HL-DT-STDVDRAM GH24NSC0 Adapter: 3 ID: 0
Read mode : Secure
Utilize accurate stream : Yes
Defeat audio cache : Yes
Make use of C2 pointers : No
Read offset correction : 6
Overread into Lead-In and Lead-Out : No
Fill up missing offset samples with silence : Yes
Delete leading and trailing silent blocks : No
Null samples used in CRC calculations : Yes
Used interface : Native Win32 interface for Win NT & 2000
Used output format : User Defined Encoder
Selected bitrate : 768 kBit/s
Quality : High
Add ID3 tag : No
Command line compressor : C:\Program Files (x86)\Exact Audio Copy\FLAC\FLAC.EXE
Additional command line options : -8 -V -T "ARTIST=%artist%" -T "TITLE=%title%" -T "ALBUM=%albumtitle%" -T "DATE=%year%" -T "TRACKNUMBER=%tracknr%" -T "GENRE=%genre%" -T "PERFORMER=%albuminterpret%" -T "COMPOSER=%composer%" %haslyrics%--tag-from-file=LYRICS="%lyricsfile%"%haslyrics% -T "ALBUMARTIST=%albumartist%" -T "DISCNUMBER=%cdnumber%" -T "TOTALDISCS=%totalcds%" -T "TOTALTRACKS=%numtracks%" -T "COMMENT=%comment%" %source% -o %dest%
TOC of the extracted CD
Track | Start | Length | Start sector | End sector
---------------------------------------------------------
1 | 0:00.33 | 4:07.05 | 33 | 18562
2 | 4:07.38 | 9:38.30 | 18563 | 61942
3 | 13:45.68 | 7:50.40 | 61943 | 97232
4 | 21:36.33 | 12:24.72 | 97233 | 153104
5 | 34:01.30 | 4:24.68 | 153105 | 172972
6 | 38:26.23 | 6:01.42 | 172973 | 200089
7 | 44:27.65 | 5:05.43 | 200090 | 223007
8 | 49:33.33 | 2:26.45 | 223008 | 234002
9 | 52:00.03 | 15:00.30 | 234003 | 301532
Track 1
Filename f:\Users\Guillermo\Desktop\EAC convertidos\01 Pista01.wav
Pre-gap length 0:00:02.44
Peak level 44.4 %
Extraction speed 1.7 X
Track quality 100.0 %
Test CRC EE73EC97
Copy CRC EE73EC97
Copy OK
Track 2
Filename f:\Users\Guillermo\Desktop\EAC convertidos\02 Pista02.wav
Pre-gap length 0:00:02.00
Peak level 89.3 %
Extraction speed 2.0 X
Track quality 99.9 %
Test CRC 757D63A8
Copy CRC 757D63A8
Copy OK
Track 3
Filename f:\Users\Guillermo\Desktop\EAC convertidos\03 Pista03.wav
Pre-gap length 0:00:02.00
Peak level 89.7 %
Extraction speed 2.5 X
Track quality 100.0 %
Test CRC B3F98698
Copy CRC B3F98698
Copy OK
Track 4
Filename f:\Users\Guillermo\Desktop\EAC convertidos\04 Pista04.wav
Pre-gap length 0:00:02.00
Peak level 67.9 %
Extraction speed 2.9 X
Track quality 100.0 %
Test CRC 0CE7AC57
Copy CRC 0CE7AC57
Copy OK
Track 5
Filename f:\Users\Guillermo\Desktop\EAC convertidos\05 Pista05.wav
Pre-gap length 0:00:02.00
Peak level 46.1 %
Extraction speed 2.8 X
Track quality 100.0 %
Test CRC 30EBC68A
Copy CRC 30EBC68A
Copy OK
Track 6
Filename f:\Users\Guillermo\Desktop\EAC convertidos\06 Pista06.wav
Pre-gap length 0:00:02.00
Peak level 54.2 %
Extraction speed 3.1 X
Track quality 100.0 %
Test CRC 0C66FA0D
Copy CRC 0C66FA0D
Copy OK
Track 7
Filename f:\Users\Guillermo\Desktop\EAC convertidos\07 Pista07.wav
Pre-gap length 0:00:02.00
Peak level 72.0 %
Extraction speed 3.1 X
Track quality 100.0 %
Test CRC 77B993CD
Copy CRC 77B993CD
Copy OK
Track 8
Filename f:\Users\Guillermo\Desktop\EAC convertidos\08 Pista08.wav
Pre-gap length 0:00:02.00
Peak level 21.8 %
Extraction speed 2.2 X
Track quality 99.8 %
Test CRC 23A7D613
Copy CRC 23A7D613
Copy OK
Track 9
Filename f:\Users\Guillermo\Desktop\EAC convertidos\09 Pista09.wav
Pre-gap length 0:00:02.00
Peak level 70.9 %
Extraction speed 3.8 X
Track quality 100.0 %
Test CRC 37D84D81
Copy CRC 37D84D81
Copy OK
No errors occurred
End of status report
==== Log checksum 8ED1CEC76DD8345D510A17A0B69D60095268801AADB71314E852CA40E850B206 ====

Содержание индексной карты (.CUE)Содержание индексной карты (.CUE) CD 1

REM GENRE Opera
REM DISCID D111BC0F
REM COMMENT "ExactAudioCopy v1.0b3"
FILE "01 Ouverture - prologue.wav" WAVE
TRACK 01 AUDIO
PREGAP 00:00:32
INDEX 01 00:00:00
TRACK 02 AUDIO
INDEX 00 07:11:55
FILE "02 L'heure s'envole.wav" WAVE
INDEX 01 00:00:00
TRACK 03 AUDIO
INDEX 00 07:44:45
FILE "03 Allons! jeunes gens.wav" WAVE
INDEX 01 00:00:00
TRACK 04 AUDIO
INDEX 00 03:08:43
FILE "04 Enfin la place est libre.wav" WAVE
INDEX 01 00:00:00
TRACK 05 AUDIO
INDEX 00 01:10:07
FILE "05 Mab, la reine des mensonges.wav" WAVE
INDEX 01 00:00:00
TRACK 06 AUDIO
INDEX 00 02:27:70
FILE "06 Eh bien.wav" WAVE
INDEX 01 00:00:00
TRACK 07 AUDIO
INDEX 00 02:19:63
FILE "07 Voyons nourrice.wav" WAVE
INDEX 01 00:00:00
TRACK 08 AUDIO
INDEX 00 04:38:25
FILE "08 Le nom de cette belle enfant.wav" WAVE
INDEX 01 00:00:00
TRACK 09 AUDIO
INDEX 00 04:45:37
FILE "09 Quelqu'un!.wav" WAVE
INDEX 01 00:00:00
TRACK 10 AUDIO
INDEX 00 05:17:08
FILE "10 Acte 2- entr'acte.wav" WAVE
INDEX 01 00:00:00
TRACK 11 AUDIO
INDEX 00 03:42:70
FILE "11 L'amour, l'amour.wav" WAVE
INDEX 01 00:00:00
TRACK 12 AUDIO
INDEX 00 03:53:27
FILE "12 Hйlas...wav" WAVE
INDEX 01 00:00:00
TRACK 13 AUDIO
INDEX 00 08:13:35
FILE "13 O nuit divine.wav" WAVE
INDEX 01 00:00:00
TRACK 14 AUDIO
INDEX 00 07:59:53
FILE "14 Acte 3, scйne 1 Entr'acte.wav" WAVE
INDEX 01 00:00:00
TRACK 15 AUDIO
INDEX 00 06:08:55
FILE "15 Dieu qui fis l'homme а ton image.wav" WAVE
INDEX 01 00:00:00

Содержание индексной карты (.CUE) CD 2

REM DISCID 820FB409
REM COMMENT "ExactAudioCopy v1.0b3"
FILE "01. Depuis hier, je cherche en vain mon maitre!.wav" WAVE
TRACK 01 AUDIO
PREGAP 00:00:33
INDEX 01 00:00:00
TRACK 02 AUDIO
INDEX 00 04:05:05
FILE "02. Ah! ah! voici nos gens!.wav" WAVE
INDEX 01 00:00:00
TRACK 03 AUDIO
INDEX 00 09:36:30
FILE "03. O jour de deuil!.wav" WAVE
INDEX 01 00:00:00
TRACK 04 AUDIO
INDEX 00 07:48:40
FILE "04. Va! je t'ai pardonne.wav" WAVE
INDEX 01 00:00:00
TRACK 05 AUDIO
INDEX 00 12:22:72
FILE "05. Juliette! Ah! le ciel soit loue.wav" WAVE
INDEX 01 00:00:00
TRACK 06 AUDIO
INDEX 00 04:22:68
FILE "06. Mon pere! tout est perdu!.wav" WAVE
INDEX 01 00:00:00
TRACK 07 AUDIO
INDEX 00 05:59:42
FILE "07. Ma fille, cede aux voeux du fiance qui t'aime!.wav" WAVE
INDEX 01 00:00:00
TRACK 08 AUDIO
INDEX 00 05:03:43
FILE "08. Le Sommeil de Juliette.wav" WAVE
INDEX 01 00:00:00
TRACK 09 AUDIO
INDEX 00 02:24:45
FILE "09. Salut! tombeau sombre et silencieux!.wav" WAVE
INDEX 01 00:00:00

Треклист

Disc 1:
Act I:
1. Prologue. Vérone vit jadis deux familles rivales
2. L'heure s'envole joyeuse et folle
3. Allons! jeunes gens!
4. Enfin la place est libre, amis!
5. Ballade. Mab, la reine des mensonges
6. Eh! Bien!
7. Ariette. Ah! Je veux vivre dans ce rêve
8. Madrigal. Ange adorable, ma main coupable
9. Finale. Quelqu'un! C'est mon cousin Tybalt
Act II:
10. O nuit! sous tes ailes obscures abrite-moi!
11. Cavatine. L'amour, l'amour!
12. Hélas! moi, le haïr!
13. Duet. O nuit divine! Je t'implore!
Act III:
14. Mon père! Dieu vous garde!
15. Trio and Quartett. Dieu qui fis l'homme à ton image!
Disc 2:
1. Depuis hier, je cherche en vain mon maître!
2. Ah! ah! voici nos gens!
3. O jour de deuil!
Act IV:
4. Duet. Va! je t'ai pardonné
5. Quartet. Juliette! Ah! le ciel soit loue
6. Scene. Mon père! tout est perdu!
7. Ma fille, cède aux voeux du fiancé qui t'aime!
Act V:
8. Le Sommeil de Juliette
9. Air. Salut! tombeau sombre et silencieux!



Показать сообщения:    

Текущее время: 04-Дек 09:04

Часовой пояс: UTC + 3


Вы не можете начинать темы
Вы не можете отвечать на сообщения
Вы не можете редактировать свои сообщения
Вы не можете удалять свои сообщения
Вы не можете голосовать в опросах
Вы не можете прикреплять файлы к сообщениям
Вы не можете скачивать файлы