[TR24][OF] The 5 countertenors: Max Emanuel Cencic, Xavier Sabata, Valer Sabadus, Yuriy Mynenko, Vince Yi [Arias by Handel, Porpora, Gluck, Galuppi, Jommelli, Hasse] (George Petrou; Armonia Atenea), 2015 (Baroque)


Статистика раздачи [Обновить пиров]
Размер:  1.16 GB   |    Зарегистрирован:  8 месяцев 17 дней   |    Скачан:  1 раз

Полного источника не было: 2 месяца 25 дней

 
   
 
 
 

[Цитировать]

The 5 countertenors: Max Emanuel Cencic, Xavier Sabata, Valer Sabadus, Yuriy Mynenko, Vince Yi
Формат записи/Источник записи: [TR24][OF]
Наличие водяных знаков: Нет
Год издания/переиздания диска: 2015
Жанр: Baroque
Издатель(лейбл): DECCA
Продолжительность: 01:03:46
Исполнители:
Max Emanuel Cencic, countertenor,
Xavier Sabata, countertenor,
Valer Sabadus, countertenor,
Yuriy Mynenko, countertenor,
Vince Yi, countertenor.
Дирижер: George Petrou
Оркестр: Armonia Atenea
Recorded at Dimitris Metropoulos Hall, Athens, Greece, July 2013.
Источник : qobuz
Контейнер: FLAC (*.flac)
Тип рипа: tracks
Разрядность: 24/96
Количество каналов: 2.0

Треклист

Niccolò Jommelli (1714 - 1774)
Tito Manlio
1. "Spezza lo stral piagato" [07:42];
Valer Sabadus, Armonia Atenea, George Petrou
Nicolai Porpora (1686 - 1768)
Ifigenia in Aulide
2. "O di spietati numi più spietato ministro! Tu, spietato, non farai cader vittima" [06:11];
Xavier Sabata, Armonia Atenea, George Petrou
Baldassare Galuppi (1706 - 1785)
Penelope - Act 2
3. "A questa bianca mano" [08:43];
Max Cencic, Armonia Atenea, George Petrou
George Frideric Handel (1685 - 1759)
Serse, HWV 40 - Act 3
4. "Crude furie degl' orridi abissi" [03:36];
Yuri Minienko, Armonia Atenea, George Petrou
Josef Myslivecek (1737 - 1781)
Farnace - Act 1
5. "Ti parli in seno amore" [07:48];
Vince Yi, Armonia Atenea, George Petrou
Johann Christian Bach (1735 - 1782)
Temistocle
6. "Ch'io parta?" [05:12];
Yuri Minienko, Armonia Atenea, George Petrou
Christoph Willibald von Gluck (1714 - 1787)
Demetrio
7. "Non so frenare il pianto" [08:58];
Valer Sabadus, Armonia Atenea, George Petrou
Fernandino Bertoni (1725 - 1813)
Tancredi
8. "Addio o miei sospiri" [04:22];
Max Cencic, Armonia Atenea, George Petrou
George Frideric Handel (1685 - 1759)
Agrippina, HWV 6 - Act 2
9. "Otton, Otton...Voi che udite il mio lamento" [06:11];
Xavier Sabata, Armonia Atenea, George Petrou
Johann Adolph Hasse (1699 - 1783)
Piramo e Tisbe - Intermezzo tragico
10. "Ah, non è ver, ben mio" [05:03]
Vince Yi, Armonia Atenea, George Petrou.

Dynamic Range Meter

foobar2000 1.3.6 / Замер динамического диапазона (DR) 1.1.1
Дата отчёта: 2015-08-03 19:51:16
--------------------------------------------------------------------------------
Анализ: Max Emanuel Cencic / The 5 Countertenors (1-2)
Valer Sabadus / The 5 Countertenors (3-4)
Vince Yi / The 5 Countertenors (5-6)
Xaver Sabata / The 5 Countertenors (7-8)
Yuriy Mynenko / The 5 Countertenors (9-10)
--------------------------------------------------------------------------------
DR Пики RMS Продолжительность трека
--------------------------------------------------------------------------------
DR13 -2.88 дБ -19.67 дБ 8:43 03-Penelope / Act 2:"A questa bianca mano"
DR14 -0.30 дБ -17.13 дБ 4:22 08-Tancredi:"Addio o miei sospiri"
DR11 -0.30 дБ -15.42 дБ 7:42 01-Tito Manlio:"Spezza lo stral piagato"
DR12 -0.30 дБ -16.94 дБ 8:58 07-Demetrio:"Non so frenare il pianto"
DR13 -1.03 дБ -18.51 дБ 7:48 05-Farnace / Act 1:"Ti parli in seno amore"
DR13 -0.49 дБ -18.86 дБ 5:03 10-Piramo e Tisbe - Intermezzo tragico / 1. Act:"Ah, non è ver, ben mio"
DR14 -0.30 дБ -17.29 дБ 6:11 02-Ifigenia in Aulide:"O di spietati numi più spietato ministro! …Tu, spietato, non farai cader vittima"
DR15 -0.30 дБ -19.60 дБ 6:11 09-Agrippina, HWV 6 / Act 2:"Otton, Otton...Voi che udite il mio lamento"
DR12 -0.30 дБ -15.26 дБ 3:36 04-Serse, HWV 40 / Act 3:"Crude furie degl' orridi abissi"
DR11 -0.30 дБ -15.37 дБ 5:12 06-Temistocle:"Ch’io parta?"
--------------------------------------------------------------------------------
Количество треков: 10
Реальные значения DR: DR13
Частота: 96000 Гц
Каналов: 2
Разрядность: 24
Битрейт: 2634 кбит/с
Кодек: FLAC
================================================================================
[teatrix.ru].t21101.torrent 
Торрент: Зарегистрирован [ 2016-03-20 00:53 ] · F3B749CF1418775C87C1C68C8CED0C6141E53044

Скачать .torrent

Скачать

13 KB

Статус: проверено
Скачан: 1 раз
Размер: 1.16 GB
terms.php



Быстрый ответ

Имя:

      
Для отправки сообщений необходимо включить JavaScript
Показать сообщения:    

Текущее время: 06-Дек 21:00

Часовой пояс: UTC + 3


Вы можете начинать темы
Вы можете отвечать на сообщения
Вы не можете редактировать свои сообщения
Вы не можете удалять свои сообщения
Вы не можете голосовать в опросах
Вы не можете прикреплять файлы к сообщениям
Вы можете скачивать файлы